หนังซูม

[ฝรั่ง]-[ V.2 ] Pacific Rim: Uprising (2018) : แปซิฟิค ริม ปฏิวัติพลิกโลก [* NEW.HDCAM.X264.HQMic.AC-3.THR2.0 CpT@CtHts *] [พากย์ไทยโรง 2.0 + เสียงอังกฤษ 2.0]

ภาพยนตร์ผลงานของ ผกก.สตีเว่น เอส. ดีไนท์ ที่อัดฉีดความมันส์มาแบบไม่ยั้งมือ!
เจค ชายหนุ่มหัวรั้น ผู้เคยเป็นผู้บังคับหุ่นยนต์เยเกอร์อนาคตไกลที่เลิกฝ ึกฝนเข้าไปพัวพันกับโลก
อาชญากรรมแทนแต่ก็มีเหตุให้เขากลับไปรับหน้าที่พลฝึก อีกครั้ง!
&
••• NEW.HDCAM.X264.HQMic.AC-3.THR2.0_CpT@CtHts •••
พากย์ไทยโรง 2.0 + เสียงอังกฤษ 2.0

Pacific Rim 2 พบกับการต่อสู้ที่ครอบคลุมทั่วโลกระหว่างสัตว์ประหลา ดจากนอกโลกที่มีพลังทำลายล้างสูงและสุดยอดเครื่องจัก รกลที่ถูกสร้างขึ้นเพื่อกำจัดพวกมัน ภายใต้การควบคุมของมนุษย์เป็นเพียงปฐมบทที่นำไปสู่กา รโจมตีมนุษยชาติแบบเต็มพิกัดใน Pacific Rim Uprising แปซิฟิค ริม ปฏิวัติพลิกโลก

จอห์น โบเยกา (Star Wars: The Force Awakens) นำแสดงในบท เจค เพนท์คอสต์ ชายหนุ่มหัวรั้น ผู้เคยเป็นผู้บังคับเยเกอร์อนาคตไกล ผู้ซึ่งพ่อผู้โด่งดังของเขาสละชีวิตเพื่อชัยชนะของมน ุษยชาติเหนือสัตว์ประหลาด “ไคจู” นับตั้งแต่นั้นมา เจคก็เลิกฝึกฝนและเข้าไปพัวพันกับโลกอาชญากรรม แต่เมื่อภัยคุกคามที่ร้ายแรงยิ่งกว่าถูกปลดปล่อยออกม า เพื่อทำลายเมืองและสร้างความสิ้นหวังให้กับโลกใบนี้ เขาก็ได้รับโอกาสสุดท้ายในการสานต่อปณิธานของพ่อเขาจ ากน้องสาวผู้หายตัวไปนานของเขา มาโกะ โมริ (รินโกะ คิคุจิ) ผู้นำพลขับผู้กล้าหาญรุ่นใหม่ ผู้เติบโตภายใต้เงาสงคราม ในตอนที่พวกเขาแสวงหาความยุติธรรมให้กับผู้ที่ล่วงลั บ ความหวังเพียงหนึ่งเดียวของพวกเขาคือ การรวมใจเป็นหนึ่งในการลุกฮือของคนทั่วโลกเพื่อต่อต้ านกองกำลังที่หมายจะกำจัดพวกเขาให้สูญสิ้นเผ่าพันธุ์

เจคได้ร่วมมือกับแลมเบิร์ต (สก็อตต์ อีสต์วูดจาก Fast & Furious 8) นักบินที่เต็มไปด้วยพรสวรรค์ผู้เป็นคู่แข่งของเขา และแฮ็กเกอร์ เยเกอร์วัย 15 ปี อมารา (ไคลี สเปนีย์ นักแสดงหน้าใหม่) และบรรดาวีรบุรุษจากกองกำลังปกป้องภาคพื้นแปซิฟิค ก็กลายเป็นครอบครัวเพียงหนึ่งเดียวที่หลงเหลืออยู่ขอ งเขา ในการก้าวไปสู่การเป็นกองกำลังป้องกันที่ทรงพลังที่ส ุดเท่าที่เคยปรากฏขึ้นบนผืนโลก พวกเขาจะสร้างปรากฏการณ์การผจญภัยสุดตระการตามันส์ระ ทึกโลกให้เป็นที่ประจักษ์

Pacific Rim Uprising แปซิฟิค ริม ปฏิวัติพลิกโลก กำกับโดยสตีเวน เอส. เดอไนท์ (ซีรีส์เน็ตฟลิกซ์เรื่อง Daredevil, ซีรีส์สตาร์สเรื่องSpartacus) และร่วมแสดงโดยจิงเถียน, เบิร์น กอร์แมน, เอเดรีย อาร์โจนาและชาร์ลีย์ เดย์

Format : Matroska
File size : 1.67 GiB
Duration : 1 h 40 min
Overall bit rate : 2 385 kb/s
Movie name : Pacific.Rim.2.Uprising.2018.NEW.HDCAM.X264.HQMic.A C-3.THR2.0_CpT@CtHts

Video
ID : 1
Format : AVC
Format/Info : Advanced Video Codec
Format profile : High@L4.2
Format settings : CABAC / 5 Ref Frames
Format settings, CABAC : Yes
Format settings, ReFrames : 5 frames
Codec ID : V_MPEG4/ISO/AVC
Duration : 1 h 40 min
Bit rate mode : Variable
Bit rate : 1 997 kb/s
Maximum bit rate : 62.5 Mb/s
Width : 720 pixels
Height : 320 pixels
Display aspect ratio : 2.25:1
Frame rate mode : Constant
Frame rate : 29.970 (30000/1001) FPS
Color space : YUV
Chroma subsampling : 4:2:0
Bit depth : 8 bits
Scan type : Progressive
Bits/(Pixel*Frame) : 0.289
Stream size : 1.40 GiB (84%)
Title : Pacific.Rim.2.Uprising.2018.NEW.HDCAM.X264.HQMic.A C-3.THR2.0_CpT@CtHts
Language : English
Default : Yes
Forced : No
Color range : Full
Color primaries : BT.709
Transfer characteristics : BT.709
Matrix coefficients : BT.709

Audio #1
ID : 2
Format : AC-3
Format/Info : Audio Coding 3
Codec ID : A_AC3
Duration : 1 h 40 min
Bit rate mode : Constant
Bit rate : 192 kb/s
Channel(s) : 2 channels
Channel positions : Front: L R
Sampling rate : 48.0 kHz
Frame rate : 31.250 FPS (1536 SPF)
Bit depth : 16 bits
Compression mode : Lossy
Stream size : 137 MiB (8%)
Title : THR 2.0 Modified By ~Mr.Captain~
Language : Thai
Service kind : Complete Main
Default : Yes
Forced : No

Audio #2
ID : 3
Format : MPEG Audio
Format version : Version 1
Format profile : Layer 3
Codec ID : A_MPEG/L3
Codec ID/Hint : MP3
Duration : 1 h 40 min
Bit rate mode : Constant
Bit rate : 192 kb/s
Channel(s) : 2 channels
Sampling rate : 44.1 kHz
Frame rate : 38.281 FPS (1152 SPF)
Compression mode : Lossy
Delay relative to video : 13 ms
Stream size : 137 MiB (8%)
Title : English 2.0
Writing library : LAME
Language : English
Default : No
Forced : No

Pacific.Rim.2.Uprising.2018.NEW.HDCAM.X264.HQMic.AC-3.THR2.0_CpT@CtHts.mkv – 1789076162

 

Facebook Comments

About the author

one4up .com

Featured

Posts

Advertisement