4K UHD

[ฝรั่ง]-Jumanji: Welcome to the Jungle (2017) 4K – CtHts : เกมดูดโลก บุกป่ามหัศจรรย์ [Remux.MKV.4K.UHD.HDR.2160p.ENG-DOLBY.ATMOS.7.1.4.THAI-DD.5.1]-[เสียง:ไทย/อังกฤษ][บรรยาย:ไทย/อังกฤษ]-[เสียงไทยและซับไทยจาก 4K Bluray Master]

PG-13 | 1h 59min | Action, Adventure, Comedy | 20 December 2017 (USA)

Director: Jake Kasdan
Writers: Chris McKenna (screenplay by), Erik Sommers (screenplay by)
Stars: Dwayne Johnson, Karen Gillan, Kevin Hart

Four teenagers are sucked into a magical video game, and the only way they can escape is to work together to finish the game.

Jumanji ภาพยนต์การผจญภัยสุดมันส์ ที่เคยโลดแล่นสร้างความประทับใจอยู่บนจอภาพยนตร์เมื่อ 23 ปีที่แล้ว (ค.ศ.1995) และกลับมาครั้งนี้ของ Jumanji มาในภาคใหม่ที่มีชื่อว่า Jumanji : Welcome to the Jungle 2017 เรื่องราวของกลุ่มเด็กทั้ง 4 คนที่ถูกดูดเข้าไปในโลกของวิดีโอเกมส์  โดยทุกคนจะได้รับร่างใหม่กลายเป็นตัวละครในเกมส์ ที่มีคาแรคเตอร์แตกต่างกันไป ทั้งนี้ทุกคนที่ถูกดูดเข้าไปต้องหาวิธีเพื่อจะเอาตัวรอดและหาจุดจบของเกมส์นี้ให้ได้ ซึ่งนำทีมนักแสดงโดย Dwayne Johnson (The Rock), Karen Gillan, Kevin Hart

General
Unique ID                   : 217904586452070738260762526842412167755 (0xA3EEE59520520C79A66FEB9B767D724B)
Complete name               : Jumanji – Welcome to the Jungle (2017) 4K – CtHts.mkv
Format                      : Matroska
Format version              : Version 4 / Version 2
File size                   : 43.7 GiB
Duration                    : 1 h 59 min
Overall bit rate mode       : Variable
Overall bit rate            : 52.5 Mb/s
Movie name                  : Jumanji – Welcome to the Jungle (2017) 4K – CtHts
Encoded date                : UTC 2018-03-17 06:18:05
Writing application         : mkvmerge v9.4.0 ( Knurl ) 32bit
Writing library             : libebml v1.3.4 + libmatroska v1.4.5

Video
ID                          : 1
Format                      : HEVC
Format/Info                 : High Efficiency Video Coding
Format profile              : Main 10@L5.1@High
Codec ID                    : V_MPEGH/ISO/HEVC
Duration                    : 1 h 59 min
Bit rate                    : 46.8 Mb/s
Width                       : 3 840 pixels
Height                      : 2 160 pixels
Display aspect ratio        : 16:9
Frame rate mode             : Constant
Frame rate                  : 23.976 (24000/1001) FPS
Color space                 : YUV
Chroma subsampling          : 4:2:0 (Type 2)
Bit depth                   : 10 bits
Bits/(Pixel*Frame)          : 0.236
Stream size                 : 39.0 GiB (89%)
Title                       : Jumanji – Welcome to the Jungle (2017) 4K – CtHts
Language                    : English
Default                     : Yes
Forced                      : Yes
Color range                 : Limited
Color primaries             : BT.2020
Transfer characteristics    : PQ
Matrix coefficients         : BT.2020 non-constant
Mastering display color pri : R: x=0.680000 y=0.320000, G: x=0.265000 y=0.690000, B: x=0.150000 y=0.060000, White point: x=0.312700 y=0.329000
Mastering display luminance : min: 0.0050 cd/m2, max: 4000.0000 cd/m2
Maximum Content Light Level : 2013 cd/m2
Maximum Frame-Average Light : 393 cd/m2

Audio #1
ID                          : 2
Format                      : TrueHD
Format profile              : TrueHD+Atmos / TrueHD
Codec ID                    : A_TRUEHD
Duration                    : 1 h 59 min
Bit rate mode               : Variable
Bit rate                    : 4 837 kb/s
Maximum bit rate            : 8 469 kb/s
Channel(s)                  : Object Based / 8 channels
Channel positions           : Object Based / Front: L C R, Side: L R, Back: L R, LFE
Sampling rate               :  / 48.0 kHz
Frame rate                  : 1 200.000 FPS (40 SPF)
Compression mode            : Lossless
Stream size                 : 4.02 GiB (9%)
Title                       : Eng Dolby Atmos 7.1.4 from 4K BD Master
Language                    : English
Default                     : No
Forced                      : No

Audio #2
ID                          : 3
Format                      : AC-3
Format/Info                 : Audio Coding 3
Codec ID                    : A_AC3
Duration                    : 1 h 59 min
Bit rate mode               : Constant
Bit rate                    : 640 kb/s
Channel(s)                  : 6 channels
Channel positions           : Front: L C R, Side: L R, LFE
Sampling rate               : 48.0 kHz
Frame rate                  : 31.250 FPS (1536 SPF)
Bit depth                   : 16 bits
Compression mode            : Lossy
Stream size                 : 545 MiB (1%)
Title                       : Thai Dolby Digital 5.1 from 4K BD Master
Language                    : English
Service kind                : Complete Main
Default                     : Yes
Forced                      : Yes

Text #1
ID                          : 4
Format                      : VobSub
Codec ID                    : S_VOBSUB
Codec ID/Info               : Picture based subtitle format used on DVDs
Duration                    : 1 h 57 min
Bit rate                    : 7 558 b/s
Count of elements           : 1554
Stream size                 : 6.37 MiB (0%)
Title                       : Thai 1080p from 4K BD Master
Language                    : Thai
Default                     : No
Forced                      : No

Text #2
ID                          : 5
Format                      : VobSub
Codec ID                    : S_VOBSUB
Codec ID/Info               : Picture based subtitle format used on DVDs
Duration                    : 1 h 57 min
Bit rate                    : 7 558 b/s
Count of elements           : 1554
Stream size                 : 6.37 MiB (0%)
Title                       : Thai 1080p Outside from 4K BD Master
Language                    : Thai
Default                     : No
Forced                      : No

Text #3
ID                          : 6
Format                      : PGS
Codec ID                    : S_HDMV/PGS
Codec ID/Info               : Picture based subtitle format used on BDs/HD-DVDs
Duration                    : 1 h 57 min
Bit rate                    : 29.5 kb/s
Count of elements           : 3120
Stream size                 : 24.8 MiB (0%)
Title                       : Thai PGS from 4K BD Master
Language                    : Thai
Default                     : No
Forced                      : No

Text #4
ID                          : 7
Format                      : PGS
Codec ID                    : S_HDMV/PGS
Codec ID/Info               : Picture based subtitle format used on BDs/HD-DVDs
Duration                    : 1 h 57 min
Bit rate                    : 29.4 kb/s
Count of elements           : 3108
Stream size                 : 24.8 MiB (0%)
Title                       : Thai PGS Outside from 4K BD Master
Language                    : Thai
Default                     : No
Forced                      : No

Text #5
ID                          : 8
Format                      : VobSub
Codec ID                    : S_VOBSUB
Codec ID/Info               : Picture based subtitle format used on DVDs
Duration                    : 1 h 48 min
Bit rate                    : 10.5 kb/s
Count of elements           : 1536
Stream size                 : 8.17 MiB (0%)
Title                       : Eng 1080p from 4K BD Master
Language                    : English
Default                     : No
Forced                      : No

Text #6
ID                          : 9
Format                      : PGS
Codec ID                    : S_HDMV/PGS
Codec ID/Info               : Picture based subtitle format used on BDs/HD-DVDs
Duration                    : 1 h 48 min
Bit rate                    : 38.8 kb/s
Count of elements           : 3078
Stream size                 : 30.2 MiB (0%)
Title                       : Eng PGS from 4K BD Master
Language                    : English
Default                     : No
Forced                      : No

Jumanji – Welcome to the Jungle (2017) 4K – CtHts.mkv – 46887542356

Facebook Comments

About the author

one4up .com

Featured

Posts

Mini HD Blu-Ray 1080p

[ฝรั่ง]-[* ใหม่ร้อนๆ!. เสียงไทย-ซับไทย มาสเตอร์ *] Star Wars: Episode.VIII / The Last Jedi (2017) : สตาร์ วอร์ส: ปัจฉิมบทแห่งเจได #[CtHts@SiamBIT] • [พากย์ไทย มาสเตอร์ + เสียงอังกฤษ DTS] • [บรรยายไทย + อังกฤษ] • [เสียงไทย + ซับไทย Master From iTunes +ซับ PGS คมชัด] • [* เล็กพริกขี้หนู 1080p HQ *] #•Or ไฟล์เล็ก 1080p คุณภาพสูง!•

Advertisement