Mini HD Blu-Ray 1080p

[ฝรั่ง]-[มาแล้ว…หนังที่รอคอย…ภาพยนตร์ยอดเยี่ยมแห่งปี] -THE SHAPE OF WATER (2018) – เดอะ เชพ ออฟ วอเทอร์ [2 ลูกโลกทองคำ + 4 Oscars]-Encode.AC-3.SD.-[Soundtrack 5.1 บรรยายไทย]

Awards
2 รางวัลลูกโลกทองคำ (Golden Globe Awards) ครั้งที่ 75 (2018)
– Best Director – Motion Picture ผู้กำกับยอดเยี่ยม : Guillermo del Toro
– Best Original Score – Motion Picture เพลงประกอบภาพยนตร์ยอดเยี่ยม : Alexandre Desplat

4 ออสการ์ (Academy Awards) ครั้งที่ 90 (2018)
– Best Achievement in Directing ผู้กำกับยอดเยี่ยม : Guillermo del Toro
– Best Motion Picture of the Year ภาพยนตร์ยอดเยี่ยม : Guillermo del Toro  & J. Miles Dale
– Best Achievement in Music Written for Motion Pictures (Original Score) ดนตรีประกอบดั้งเดิมยอดเยี่ยม : Alexandre Desplat
– Best Achievement in Production Design ออกแบบงานสร้างยอดเยี่ยม : Paul D. Austerberry, Shane Vieau,  Jeffrey A. Melvin

ภาพยนตร์แนว Romantic Fantasy ต่างสายพันธุ์ นิทานของผู้ใหญ่ คนรักกับอมนุษย์ใต้น้ำ The Shape of Water ผลงานชิ้นล่าสุดของ Guillermo del Toro

ปี 1962 ฺBaltimore สาวใบ้แสนเหงา Eliza ภารโรงทำความสะอาดในห้อง Lab ลับของรัฐบาล วันหนึ่งเจ้าหน้าที่เข็น “สมบัติล้ำค่า” เข้ามา นับวันเธอเองให้สงสัยถึงสิ่งนี้ยิ่งขึ้น และในที่สุดจึงได้รู้ว่าแท้จริงสิ่งในกระสวยเหล็กนี้ก็คือ “อมนุษย์-พรายน้ำ” สิ่งแปลกประหลาดล้ำลึกสุดลึกลับของสถาบัน ด้วยความอยากรู้อยากเห็นทำให้เธอเริ่มสานสัมพันธ์กับมันแล้วต่อมาในที่สุด…กลายเป็นความรัก  เธอรักเจ้าพรายน้ำตนนี้ และก็บากบั่นที่หาวิธีปลดปล่อยให้มันมีอิสรภาพจากที่จองจำคุมขัง

นับวันอมนุษย์-พรายน้ำยิ่งถูกทำร้ายอย่างขาดความกรุณาปรานี และมันกำลังถูกเตรียมเพื่อการทดลองที่โหดร้ายทารุณ ภายใต้การควบคุมของ Strickland เจ้าหน้าที่จอมโหด การทำผิดกฎ และลักลอบช่วยเหลือครั้งนี้จะลงเอยเช่นไร…..




















Details
General
Format : Matroska
Format version : Version 2
File size : 4.26 GiB
Duration : 2h 3mn 12sc
Overall bit rate mode : Variable
Overall bit rate : 4 951 Kbps
Encoded date : UTC 2018-03-17 11:13:35
Writing application : MakeMKV v1.9.1 win(x86-release)
Writing library : libmakemkv v1.9.1 (1.3.0/1.4.1) win(x86-release)
Audio #2
Format : AC-3
Format/Info : Audio Coding 3
Mode extension : CM (complete main)
Format settings, Endianness : Big
Codec ID : A_AC3
Duration : 2h 3mn 12sc
Bit rate mode : Constant
Bit rate : 384 Kbps
Channel(s) : 6 channels
Channel positions : Front: L C R, Side: L R, LFE
Sampling rate : 48.0 KHz
Compression mode : Lossy
Stream size : 339 MiB (8%)
Title : Surround 5.1
Language : Russian
Default : Yes
Forced : No
Audio #3
Format : AC-3
Format/Info : Audio Coding 3
Mode extension : CM (complete main)
Format settings, Endianness : Big
Codec ID : A_AC3
Duration : 2h 3mn 12sc
Bit rate mode : Constant
Bit rate : 384 Kbps
Channel(s) : 5 channels
Channel positions : Front: L C R, Side: L R
Sampling rate : 48.0 KHz
Compression mode : Lossy
Stream size : 339 MiB (8%)
Title : Surround 5.0
Language : English
Default : No
Forced : No
Text #4
Format : VobSub
Codec ID : S_VOBSUB
Codec ID/Info : Picture based subtitle format used on DVDs
Language : Russian
Default : Yes
Forced : No
Text #5
Format : VobSub
Codec ID : S_VOBSUB
Codec ID/Info : Picture based subtitle format used on DVDs
Language : English
Default : No
Forced : No
Text #6
Format : VobSub
Codec ID : S_VOBSUB
Codec ID/Info : Picture based subtitle format used on DVDs
Language : Thai (แปลไทยโดยธนพร)
Default : No
Forced : No

The_Shape_Of_Water-เดอะ_เชพ_ออฟ_วอเทอร์_(2018)_บรรยายไทย_by_ธนพร.mkv – 4579236710

Facebook Comments

About the author

one4up .com

Featured

Posts

Mini HD Blu-Ray 1080p

[ฝรั่ง]-[* ใหม่ร้อนๆ!. เสียงไทย-ซับไทย มาสเตอร์ *] Star Wars: Episode.VIII / The Last Jedi (2017) : สตาร์ วอร์ส: ปัจฉิมบทแห่งเจได #[CtHts@SiamBIT] • [พากย์ไทย มาสเตอร์ + เสียงอังกฤษ DTS] • [บรรยายไทย + อังกฤษ] • [เสียงไทย + ซับไทย Master From iTunes +ซับ PGS คมชัด] • [* เล็กพริกขี้หนู 1080p HQ *] #•Or ไฟล์เล็ก 1080p คุณภาพสูง!•

Mini HD Blu-Ray 1080p

[ฝรั่ง]-[* ใหม่ร้อนๆ! +พิเศษก่อนกำหนดของไทยออก! *] Jumanji: Welcome to the Jungle (2017) / เกมดูดโลก บุกป่ามหัศจรรย์ #[CtHts@SiamBIT] • [พากย์ไทย 5.1 + เสียงอังกฤษ DTS] • [บรรยายไทย + อังกฤษ] • [เสียงไทย + ซับไทย From Blu-Ray MASTER +ซับ PGS คมชัด] • [* เล็กพริกขี้หนู 1080p Super HQ *] #•Or ไฟล์เล็ก 1080p คุณภาพสูง!•

Advertisement