หนังซูม

[ฝรั่ง]-ใหม่[ V.1] Winchester (2018) : คฤหาสน์ขังผี [* HDCAM.x264.AC-3.THR2.0 CpT@CtHts *] [พากย์ไทยโรง 2.0 + เสียงอังกฤษ 2.0]

ภาพยนตร์ผลงานของ ผกก. ไมเคิล สเปียเบิร์ก และ ปีเตอร์ สเปียเบิร์ก
ที่เคยสร้างหนังสุดโหดจัดเต็มใน “Jigsaw”
เธอสร้างคุก และสถานที่คุมขังเหล่าวิญญาณสุดแค้นกว่าร้อยดวง
และพวกมันคือแหล่งรวมของความช่วยร้ายที่สถิตอยู่ใน วินเชสเตอร์…!

••• HDCAM.x264.AC-3.THR2.0_CpT@CtHts •••
พากย์ไทยโรง 2.0 + เสียงอังกฤษ 2.0

Winchester แรงบันดาลใจจากเรื่องจริง – ในดินแดนที่ห่างไกลจากเมืองซานฟรานซิสโก เป็นที่ตั้งของบ้านผีสิงที่โด่งดังที่สุดหลังหนึ่งใน โลก สร้างขึ้นโดย ซาราห์ วินเชสเตอร์ (รับบทโดยเจ้าของรางวัลออสการ์ เฮเลน มิร์เรน) ผู้อยู่เบื้องหลังการสร้างบ้านที่ไม่มีวันสิ้นสุด การก่อสร้างเกิดขึ้นตลอด 24 ชั่วโมง ตลอด 7 วันในสัปดาห์ และเป็นเช่นนี้มาตลอด ภายในบ้านประกอบไปด้วยจำนานห้องกว่า 100 ห้อง ภายนอกนั้นบ้านหลังนี้ดูเหมือนเป็นดั่งอนุสรณ์สถานขอ งหญิงเสียสติ แต่ซาราห์ไม่ได้สร้างเพื่อตัวเธอเอง หรือหลานของเธอ (รับบทโดยซาราห์ สนู๊ค) หรือเพื่อคุณหมอผู้ฉลาดหลักแหลม ด็อกเตอร์อีริค ไพร์ซ (รับบทโดยเจสัน คลาร์ก) หมอหนุ่มผู้ที่เธอเรียกตัวมายังบ้านหลังดังกล่าว

Format : Matroska
File size : 1.01 GiB
Duration : 1 h 39 min
Overall bit rate : 1 459 kb/s
Movie name : Winchester.2018.HDCAM.x264.AC-3.THR2.0_CpT@CtHts

Video
ID : 1
Format : AVC
Format/Info : Advanced Video Codec
Format profile : High@L3
Format settings : CABAC / 8 Ref Frames
Format settings, CABAC : Yes
Format settings, ReFrames : 8 frames
Codec ID : V_MPEG4/ISO/AVC
Duration : 1 h 39 min
Bit rate : 1 168 kb/s
Width : 720 pixels
Height : 304 pixels
Display aspect ratio : 2.35:1
Frame rate mode : Constant
Frame rate : 30.000 FPS
Color space : YUV
Chroma subsampling : 4:2:0
Bit depth : 8 bits
Scan type : Progressive
Bits/(Pixel*Frame) : 0.178
Stream size : 830 MiB (80%)
Title : Winchester.2018.HDCAM.x264.AC-3.THR2.0_CpT@CtHts
Writing library : x264 core 148 r2705 3f5ed56
Encoding settings : cabac=1 / ref=8 / deblock=1:0:0 / analyse=0x3:0x113 / me=umh / subme=9 / psy=1 / psy_rd=1.00:0.00 / mixed_ref=1 / me_range=24 / chroma_me=1 / trellis=1 / 8x8dct=1 / cqm=0 / deadzone=21,11 / fast_pskip=1 / chroma_qp_offset=-2 / threads=3 / lookahead_threads=1 / sliced_threads=0 / nr=0 / decimate=1 / interlaced=0 / bluray_compat=0 / constrained_intra=0 / bframes=5 / b_pyramid=2 / b_adapt=2 / b_bias=0 / direct=3 / weightb=1 / open_gop=0 / weightp=2 / keyint=300 / keyint_min=30 / scenecut=40 / intra_refresh=0 / rc_lookahead=60 / rc=2pass / mbtree=1 / bitrate=1168 / ratetol=1.0 / qcomp=0.60 / qpmin=0 / qpmax=69 / qpstep=4 / cplxblur=20.0 / qblur=0.5 / ip_ratio=1.40 / aq=2:1.00
Language : English
Default : Yes
Forced : No

Audio #1
ID : 2
Format : AC-3
Format/Info : Audio Coding 3
Codec ID : A_AC3
Duration : 1 h 39 min
Bit rate mode : Constant
Bit rate : 192 kb/s
Channel(s) : 2 channels
Channel positions : Front: L R
Sampling rate : 48.0 kHz
Frame rate : 31.250 FPS (1536 SPF)
Bit depth : 16 bits
Compression mode : Lossy
Stream size : 136 MiB (13%)
Title : THR 2.0 Modified By ~Mr.Captain~
Language : Thai
Service kind : Complete Main
Default : Yes
Forced : No

Audio #2
ID : 3
Format : AAC
Format/Info : Advanced Audio Codec
Format profile : LC
Codec ID : A_AAC-2
Duration : 1 h 39 min
Bit rate : 96.0 kb/s
Channel(s) : 2 channels
Channel positions : Front: L R
Sampling rate : 48.0 kHz
Frame rate : 46.875 FPS (1024 SPF)
Compression mode : Lossy
Delay relative to video : 9 ms
Stream size : 68.2 MiB (7%)
Title : English 2.0
Language : English
Default : No
Forced : No








 


\
Winchester.2018.HDCAM.x264.AC-3.THR2.0_CpT@CtHts.mkv – 1087817465

Facebook Comments

About the author

one4up .com

Featured

Posts

Advertisement