หนังซูม

[ฝรั่ง]-ใหม่ร้อนๆ! Jumanji: Welcome to the Jungle (2017) : เกมดูดโลก บุกป่ามหัศจรรย์ • [1080p] [* WEB-DL.H264.AC-3.THR5.1 CpT@CtHts *] [พากย์ไทยโรง 5.1 + เสียงอังกฤษ DD5.1] [บรรยายอังกฤษ]

ภาพยนตร์ภาคต่อที่จะมาสานความมันส์และการผจญภัย หลังจากที่เคยสร้างความประทับใจเมื่อปี 1995
กลับมาอีกครั้งกับเกมกระดานที่ดึงผู้เล่นที่อยู่ในโล กปัจจุบันไปสู่ในโลกของ Jumanji!

••• 1080p.WEB-DL.H264.AC-3.THR5.1_CpT@CtHts •••
พากย์ไทยโรง 5.1 + เสียงอังกฤษ DD5.1 + บรรยายอังกฤษ

Jumanji ภาพยนตร์ภาคต่อที่จะมาสานความมันส์และการผจญภัย หลังจากที่เคยสร้างความประทับใจเมื่อปี 1995 ซึ่งภาคที่แล้ว เกมกระดานจูแมนจี้ได้ดูดชายชื่ออลัน (โรบิน วิลเลียมส์) เข้าไปในเกม และเกมก็ถูกปลดปล่อยออกมานำบรรดาสิงสาราสัตว์มาถล่มโ ลกแห่งความเป็นจริง

ใน Jumanji: Welcome to the Jungle เวอร์ชั่น 2017 นี้จะเป็นการกลับกัน เพราะ จูแมนจี้ จะมาในรูปแบบวิดีโอเกม ให้เลือกตัวละครแล้วจะถูกดูดเข้าไปผจญภัยในโลกของเกม ที่ถูกเซตฉากหลังเป็นป่าที่เต็มไปด้วยอันตราย จูแมนจี้ เกมดูดโลก บุกป่ามหัศจรรย์ มีกำหนดเข้าฉาย เข้าฉาย 28 ธันวาคมนี้ นำแสดงโดย ดเวย์น จอห์นสัน,เควิน ฮาร์ท,คาเรน จิลเลียน,นิค โจนัส

 

Format : Matroska
File size : 4.47 GiB
Duration : 1 h 59 min
Overall bit rate : 5 378 kb/s
Movie name : Jumanji.Welcome.to.the.Jungle.2017.1080p.WEB-DL.H264.AC-3.THR5.1_CpT@CtHts

Video
ID : 1
Format : AVC
Format/Info : Advanced Video Codec
Format profile : High@L4
Format settings : CABAC / 5 Ref Frames
Format settings, CABAC : Yes
Format settings, ReFrames : 5 frames
Codec ID : V_MPEG4/ISO/AVC
Duration : 1 h 59 min
Bit rate : 4 543 kb/s
Width : 1 920 pixels
Height : 796 pixels
Display aspect ratio : 2.40:1
Frame rate mode : Constant
Frame rate : 23.976 (23976/1000) FPS
Color space : YUV
Chroma subsampling : 4:2:0
Bit depth : 8 bits
Scan type : Progressive
Bits/(Pixel*Frame) : 0.124
Stream size : 3.78 GiB (84%)
Title : Jumanji.Welcome.to.the.Jungle.2017.1080p.WEB-DL.H264.AC-3.THR5.1_CpT@CtHts
Language : English
Default : Yes
Forced : No
Color range : Limited
Color primaries : BT.709
Transfer characteristics : BT.709
Matrix coefficients : BT.709

Audio #1
ID : 2
Format : AC-3
Format/Info : Audio Coding 3
Codec ID : A_AC3
Duration : 1 h 59 min
Bit rate mode : Constant
Bit rate : 448 kb/s
Channel(s) : 6 channels
Channel positions : Front: L C R, Side: L R, LFE
Sampling rate : 48.0 kHz
Frame rate : 31.250 FPS (1536 SPF)
Bit depth : 16 bits
Compression mode : Lossy
Stream size : 381 MiB (8%)
Title : THR 5.1 Modified By ~Mr.Captain~
Language : Thai
Service kind : Complete Main
Default : Yes
Forced : No

Audio #2
ID : 3
Format : AC-3
Format/Info : Audio Coding 3
Codec ID : A_AC3
Duration : 1 h 59 min
Bit rate mode : Constant
Bit rate : 384 kb/s
Channel(s) : 6 channels
Channel positions : Front: L C R, Side: L R, LFE
Sampling rate : 48.0 kHz
Frame rate : 31.250 FPS (1536 SPF)
Bit depth : 16 bits
Compression mode : Lossy
Stream size : 327 MiB (7%)
Title : English DD5.1
Language : English
Service kind : Complete Main
Default : No
Forced : No

Text
ID : 4
Format : UTF-8
Codec ID : S_TEXT/UTF8
Codec ID/Info : UTF-8 Plain Text
Duration : 1 h 48 min
Bit rate : 65 b/s
Count of elements : 1803
Stream size : 51.9 KiB (0%)
Language : English
Default : No
Forced : No

Menu
00:00:00.000 : en:1
00:07:17.103 : en:2
00:17:14.992 : en:3
00:23:22.234 : en:4
00:29:23.970 : en:5
00:42:27.545 : en:6
00:47:10.160 : en:7
00:54:25.720 : en:8
01:03:19.837 : en:9
01:10:20.799 : en:10
01:15:50.670 : en:11
01:24:09.085 : en:12
01:28:19.293 : en:13
01:33:47.412 : en:14
01:42:21.884 : en:15
01:48:30.836 : en:16










 

Jumanji.Welcome.to.the.Jungle.2017.1080p.WEB-DL.H264.AC-3.THR5.1_CpT@CtHts.mkv – 4801243190

Facebook Comments

Featured

Posts

4K UHD

[ฝรั่ง]-[**มาใหม่ร้อนๆ!!! 4K Ultra HD 2160P**] Thor: Ragnarok (2017) : ศึกอวสานเทพเจ้า [2160p.BluRay.REMUX.HEVC.DTS-HD.MA.TrueHD.7.1.Atmos]-[พากย์ไทย Master + อังกฤษ TrueHD 7.1+Atmos]-[บรรยายไทย + อังกฤษ]-[เสียงไทย + ซับไทย Master From iTunes +ซับ PGS คมชัด]-Remux.Dolby Atmos.2160p. [Modified]-[พากย์ไทย บรรยายไทย]

Advertisement