หนังซูม

[จีน]-[ใหม่!ภาพชัด] Monkey King 3 (2018) : ไซอิ๋ว 3 ตอน ศึกราชาวานรตะลุยเมืองแม่ม่าย [1080p] [* TC.x264.THR2.0 CpT@CtHts *] [พากย์ไทยโรง 2.0 + เสียงจีน 2.0] [บรรยายอังกฤษ + จีนฝัง]

การกลับมาคราวนี้ยังคงนักแสดงหลักชุดเดิมจากภาค 2 ไว้เหมือนเดิม นำโดย กัวฟู่เฉิง และ เผิงเส้าเฟิง
พระถังซัมจั๋งพร้อมคณะเดินทางมาถึง ‘เมืองแม่ม่าย’ เมืองที่เต็มไปด้วยสาวโสด
พระถังจะนำพระไตรปิฏกที่ชมพูทวีปได้หรือไม่!

••• 1080p.TC.x264.THR2.0_CpT@CtHts •••
พากย์ไทยโรง 2.0 + เสียงจีน 2.0 + บรรยายอังกฤษ + จีนฝัง

Monkey King 3 การผจญภัยเหนือจินตนาการครั้งใหม่ของตำนานไซอิ๋ว เมื่อพระถังซัมจั๋งและคณะผู้ติดตามอย่าง ซุนหงอคง, ซัวเจ๋ง และ ตือโป๊ยก่าย ได้เดินทางมาพบกับเมืองที่เต็มไปด้วยหญิงโสด พระถังซัมจั๋งได้พบกับราชินีแห่งเมืองแม่ม่าย ซึ่งนางได้ตกหลุมรักและต้องการให้พระถังซัมจั๋งอยู่ท ี่นี่ตลอดไป ซุนหงอคงและพรรคพวกจำต้องหากลอุบายเพื่อที่จะหนีออกไ ปจากที่นี่อย่างปลอดภัยให้ได้

Format : Matroska
File size : 2.61 GiB
Duration : 1 h 52 min
Overall bit rate : 3 325 kb/s
Movie name : The.Monkey.King.3.2018.1080p.TC.x264.THR2.0_CpT@Ct Hts

Video
ID : 1
Format : AVC
Format/Info : Advanced Video Codec
Format profile : High@L4
Format settings : CABAC / 4 Ref Frames
Format settings, CABAC : Yes
Format settings, ReFrames : 4 frames
Codec ID : V_MPEG4/ISO/AVC
Duration : 1 h 52 min
Bit rate : 3 000 kb/s
Width : 1 920 pixels
Height : 1 080 pixels
Display aspect ratio : 16:9
Frame rate mode : Constant
Frame rate : 25.000 FPS
Color space : YUV
Chroma subsampling : 4:2:0
Bit depth : 8 bits
Scan type : Progressive
Bits/(Pixel*Frame) : 0.058
Stream size : 2.35 GiB (90%)
Title : The.Monkey.King.3.2018.1080p.TC.x264.THR2.0_CpT@Ct Hts
Writing library : x264 core 120 r2164 da19765
Encoding settings : cabac=1 / ref=3 / deblock=1:0:0 / analyse=0x3:0x113 / me=hex / subme=7 / psy=1 / psy_rd=1.00:0.00 / mixed_ref=1 / me_range=16 / chroma_me=1 / trellis=1 / 8x8dct=1 / cqm=0 / deadzone=21,11 / fast_pskip=1 / chroma_qp_offset=-2 / threads=16 / sliced_threads=0 / nr=0 / decimate=1 / interlaced=0 / bluray_compat=0 / constrained_intra=0 / bframes=3 / b_pyramid=2 / b_adapt=1 / b_bias=0 / direct=1 / weightb=1 / open_gop=0 / weightp=2 / keyint=250 / keyint_min=25 / scenecut=40 / intra_refresh=0 / rc_lookahead=40 / rc=2pass / mbtree=1 / bitrate=3000 / ratetol=1.0 / qcomp=0.60 / qpmin=0 / qpmax=69 / qpstep=4 / cplxblur=20.0 / qblur=0.5 / ip_ratio=1.40 / aq=1:1.00
Language : Chinese
Default : Yes
Forced : No

Audio #1
ID : 2
Format : AC-3
Format/Info : Audio Coding 3
Codec ID : A_AC3
Duration : 1 h 52 min
Bit rate mode : Constant
Bit rate : 192 kb/s
Channel(s) : 2 channels
Channel positions : Front: L R
Sampling rate : 48.0 kHz
Frame rate : 31.250 FPS (1536 SPF)
Bit depth : 16 bits
Compression mode : Lossy
Delay relative to video : 100 ms
Stream size : 154 MiB (6%)
Title : THR 2.0 Modified By ~Mr.Captain~
Language : Thai
Service kind : Complete Main
Default : Yes
Forced : No

Audio #2
ID : 3
Format : AAC
Format/Info : Advanced Audio Codec
Format profile : LC
Codec ID : A_AAC-2
Duration : 1 h 52 min
Bit rate : 128 kb/s
Channel(s) : 2 channels
Channel positions : Front: L R
Sampling rate : 48.0 kHz
Frame rate : 46.875 FPS (1024 SPF)
Compression mode : Lossy
Stream size : 103 MiB (4%)
Title : Chinese 2.0
Language : Chinese
Default : No
Forced : No










Quote:

The.Monkey.King.3.2018.1080p.TC.x264.THR2.0_CpT@CtHts.mkv – 2801590334

Facebook Comments

About the author

one4up .com

Featured

Posts

Advertisement