Mini HD Blu-Ray 1080p

[ฝรั่ง]-Silence-ศรัทธาไม่เงียบ (2016) นำแสดงโดย Liam Neeson, Andrew Garfield, Adam Driver กำกับโดย Martin Scorsese-WEB-DL.H.264.1080p. [Rip]-[Soundtrack บรรยายไทย]

เรื่องย่อ
เมื่อบาทหลวงเฟอร์เรร่า (เลียม นีสัน) ที่ได้เดินทางไปเผยแพร่ศาสนาคริสต์ที่ประเทศญี่ปุ่น ได้หายตัวไปอย่างลึกลับ มีเพียงแค่สาส์นที่เขาได้ส่งมาทางคริสตจักรบอกว่าเขา ได้ละทิ้งพระเจ้าและปลดปล่อยตนเองจากศาสนาคริสต์แล้ว ทำให้ศิษย์อย่าง บาทหลวงโรดิเกซ (แอนดรูว์ การ์ฟิลด์) และ บาทหลวงการูเป้ (อดัม ไดรเวอร์) ต้องอาสาเข้าไปยังดินแดนที่ที่มีการกวาดล้างผู้นับถื อศาสนาคริสต์ในญี่ปุ่น เพื่อตามหาบาทหลวงเฟอร์เรร่า

General

Complete name : Silence (2016)\Silence (2016).mkv
Format : Matroska
Format version : Version 4 / Version 2
File size : 3.06 GiB
Duration : 2 h 41 min
Overall bit rate : 2 720 kb/s
Encoded date : UTC 2018-02-28 05:02:22
Writing application : mkvmerge v21.0.0 (‘Tardigrades Will Inherit The Earth’) 64-bit
Writing library : libebml v1.3.5 + libmatroska v1.4.8

Video
ID : 1
Format : AVC
Format/Info : Advanced Video Codec
Format profile : Main@L4
Format settings : CABAC / 4 Ref Frames
Format settings, CABAC : Yes
Format settings, ReFrames : 4 frames
Codec ID : V_MPEG4/ISO/AVC
Duration : 2 h 40 min
Bit rate : 2 370 kb/s
Width : 1 920 pixels
Height : 800 pixels
Display aspect ratio : 2.40:1
Frame rate mode : Variable
Frame rate : 23.945 FPS
Color space : YUV
Chroma subsampling : 4:2:0
Bit depth : 8 bits
Scan type : Progressive
Bits/(Pixel*Frame) : 0.064
Stream size : 2.66 GiB (87%)
Writing library : x264 core 148 r2708 86b7198
Encoding settings : cabac=1 / ref=1 / deblock=1:0:0 / analyse=0x1:0x111 / me=hex / subme=2 / psy=1 / psy_rd=1.00:0.00 / mixed_ref=0 / me_range=16 / chroma_me=1 / trellis=0 / 8x8dct=0 / cqm=0 / deadzone=21,11 / fast_pskip=1 / chroma_qp_offset=0 / threads=10 / lookahead_threads=3 / sliced_threads=0 / nr=0 / decimate=1 / interlaced=0 / bluray_compat=0 / constrained_intra=0 / bframes=3 / b_pyramid=2 / b_adapt=1 / b_bias=0 / direct=1 / weightb=1 / open_gop=0 / weightp=1 / keyint=240 / keyint_min=24 / scenecut=40 / intra_refresh=0 / rc_lookahead=10 / rc=crf / mbtree=1 / crf=20.0 / qcomp=0.60 / qpmin=0 / qpmax=69 / qpstep=4 / vbv_maxrate=20000 / vbv_bufsize=25000 / crf_max=0.0 / nal_hrd=none / filler=0 / ip_ratio=1.40 / aq=1:1.00
Default : Yes
Forced : No
Color range : Limited
Color primaries : BT.709
Transfer characteristics : BT.709
Matrix coefficients : BT.709

Audio #1
ID : 2
Format : AC-3
Format/Info : Audio Coding 3
Codec ID : A_AC3
Duration : 2 h 40 min
Bit rate mode : Constant
Bit rate : 224 kb/s
Channel(s) : 2 channels
Channel positions : Front: L R
Sampling rate : 48.0 kHz
Frame rate : 31.250 FPS (1536 SPF)
Bit depth : 16 bits
Compression mode : Lossy
Delay relative to video : -3 s 710 ms
Stream size : 258 MiB (8%)
Title : Stereo
Language : English
Service kind : Complete Main
Default : Yes
Forced : No

Audio #2
ID : 3
Format : AAC
Format/Info : Advanced Audio Codec
Format profile : LC
Codec ID : A_AAC-2
Duration : 2 h 41 min
Bit rate : 128 kb/s
Channel(s) : 2 channels
Channel positions : Front: L R
Sampling rate : 48.0 kHz
Frame rate : 46.875 FPS (1024 SPF)
Compression mode : Lossy
Delay relative to video : -3 s 689 ms
Stream size : 148 MiB (5%)
Language : Thai
Default : No
Forced : No

Soundtrack บรรยายไทย
**มีเสียงไทย แต่ไม่ตรงปาก**

Silence (2016).mkv – 3287631516

Facebook Comments

About the author

one4up .com

Featured

Posts

Advertisement