Mini HD Blu-Ray 1080p หนังจีน

[จีน]-Soccer Killer 2017 พากย์ไทยจากช่อง RED By HBO-Encode.H.264.1080p. [Modified]-[พากย์ไทย]

หนังตลก Soccer Killer เล่าเรื่องกลุ่มผู้รักชาติในสมัยราชวงศ์ซ่ง ที่ร่วมกันตั้งทีมฟุตบอล (!?) รวบรวมบรรดายอดฝีมือ เข้าแข่งขันในทัวร์นาเมนต์ระดับชาติที่มีทั้งเหล่าจอ มยุทธ, โจรป่า และบรรดาต่างชาติเข้าแข่งขันเพื่อนชิงรางวัลมากมาย

นี่คือภาพยนตร์จีนผลงานของ เจฟฟรีย์ เลา แห่ง “คนตัดเซียน”, “ไซอิ๋ว 95 เดี๋ยวลิงเดี๋ยวคน” ที่ได้กลับมาทำหนังตลกแนว “ยำหนัง” อีกครั้งหลังเคยทำงานแบบนี้ใน “กังฟู 3 ก๊กไซอิ๋วแพนด้าหมัดเทวดา” มาแล้ว โดนหนังดูจะมีปัญหาอยู่พอสมควร เพราะถ่ายทำมาตั้งแต่ปี 2014 แต่เพิ่งได้ฉายเอาในปีนี้ โดยมีการถ่ายทำฉากเพิ่มเติมเข้าไปด้วย ซึ่งก็อาจจะรวมถึงฉากที่มีเหล่า “อเวนเจอร์” และ “เอ็กซ์เมน” มาปรากฏตัวในหนังที่กำลังเป็นคลิปฮิตอยู่ในขณะนี้ด้ว ย

Soccer Killer มีดาราดังอย่าง อาเจียว, อาซา, ถัน เหย้าเหวิน ร่วมแสดง นอกจากนั้นก็ยังอุตสาห์ไปดึงเอา “พริ้วไหวเหมือนสายน้ำ” และ “ศิษย์พี่ใหญ่” แห่ง Shaolin Soccer หนังกังฟูฟุตบอลสุดฮิตของ โจวซิงฉือ มาร่วมแสดงในหนังเรื่องนี้ด้วย

General

Complete name : Soccer Killer 2017 ThaiSound.mkv
Format : Matroska
Format version : Version 4 / Version 2
File size : 2.55 GiB
Duration : 1 h 23 min
Overall bit rate : 4 356 kb/s
Encoded date : UTC 2018-02-25 16:18:19
Writing application : mkvmerge v12.0.0 (‘Trust / Lust’) 64bit
Writing library : libebml v1.3.4 + libmatroska v1.4.5

Video
ID : 1
Format : AVC
Format/Info : Advanced Video Codec
Format profile : Main@L4
Format settings : CABAC / 1 Ref Frames
Format settings, CABAC : Yes
Format settings, ReFrames : 1 frame
Codec ID : V_MPEG4/ISO/AVC
Duration : 1 h 23 min
Bit rate : 4 160 kb/s
Width : 1 920 pixels
Height : 800 pixels
Display aspect ratio : 2.40:1
Frame rate mode : Constant
Frame rate : 24.000 FPS
Color space : YUV
Chroma subsampling : 4:2:0
Bit depth : 8 bits
Scan type : Progressive
Bits/(Pixel*Frame) : 0.113
Stream size : 2.43 GiB (96%)
Writing library : x264 core 129
Encoding settings : cabac=1 / ref=1 / deblock=1:0:0 / analyse=0x1:0x131 / me=dia / subme=2 / psy=1 / psy_rd=1.00:0.00 / mixed_ref=0 / me_range=16 / chroma_me=1 / trellis=0 / 8x8dct=0 / cqm=0 / deadzone=21,11 / fast_pskip=1 / chroma_qp_offset=0 / threads=4 / lookahead_threads=1 / sliced_threads=0 / nr=0 / decimate=1 / interlaced=0 / bluray_compat=0 / constrained_intra=0 / bframes=0 / weightp=2 / keyint=250 / keyint_min=25 / scenecut=40 / intra_refresh=0 / rc_lookahead=40 / rc=abr / mbtree=1 / bitrate=4160 / ratetol=1.0 / qcomp=0.60 / qpmin=10 / qpmax=51 / qpstep=4 / ip_ratio=1.41 / aq=1:1.00
Default : Yes
Forced : No

Audio
ID : 2
Format : AC-3
Format/Info : Audio Coding 3
Codec ID : A_AC3
Duration : 1 h 23 min
Bit rate mode : Constant
Bit rate : 192 kb/s
Channel(s) : 2 channels
Channel positions : Front: L R
Sampling rate : 48.0 kHz
Frame rate : 31.250 FPS (1536 SPF)
Bit depth : 16 bits
Compression mode : Lossy
Stream size : 115 MiB (4%)
Language : Thai
Service kind : Complete Main
Default : Yes
Forced : No

เสียงพากย์ไทยจากช่อง Red by HBO
credit Chonkub

Soccer Killer 2017 ThaiSound.mkv – 2734772670

Facebook Comments

About the author

one4up .com

Featured

Posts

Advertisement