ซีรีย์ฝรั่ง

[ฝรั่ง]-The Walking Dead Season 8 Episode 9 : Honor – Soundtrack + พากย์ไทย Sub Thai FOXไทย 2 ภาษา-Encode.H.264.1080i. [From HD-TV]-[พากย์ไทย บรรยายไทย]

The Walking Dead Season 8 Episode 9 : Honor – Soundtrack + พากย์ไทย Sub Thai FOXไทย 2 ภาษา

Rick faces new difficulties after a battle. Meanwhile, the fight continues in other communities as core members face hard decisions.

General
Unique ID : 303190417293482015785820359725362344624 (0xE41859B0A5C687691FBEE95C214672B0)
Complete name : F:TWD S08EP09.mkv
Format : Matroska
Format version : Version 4 / Version 2
File size : 2.46 GiB
Duration : 54 min 11 s
Overall bit rate : 6 496 kb/s
Encoded date : UTC 2018-02-26 07:37:06
Writing application : mkvmerge v21.0.0 ( Tardigrades Will Inherit The Earth ) 64-bit
Writing library : libebml v1.3.5 + libmatroska v1.4.8

Video
ID : 1
Format : AVC
Format/Info : Advanced Video Codec
Format profile : Main@L4.2
Format settings, CABAC : Yes
Format settings, ReFrames : 4 frames
Codec ID : V_MPEG4/ISO/AVC
Duration : 54 min 11 s
Bit rate : 5 857 kb/s
Width : 1 920 pixels
Height : 1 080 pixels
Display aspect ratio : 16:9
Frame rate mode : Constant
Frame rate : 50.000 FPS
Standard : PAL
Color space : YUV
Chroma subsampling : 4:2:0
Bit depth : 8 bits
Scan type : Progressive
Bits/(Pixel*Frame) : 0.056
Stream size : 2.22 GiB (90%)
Language : English
Default : Yes
Forced : No
Color range : Limited
Color primaries : BT.709
Transfer characteristics : BT.709
Matrix coefficients : BT.709

Audio #1
ID : 2
Format : AAC
Format/Info : Advanced Audio Codec
Format profile : LC
Codec ID : A_AAC
Duration : 54 min 11 s
Bit rate : 317 kb/s
Channel(s) : 2 channels
Channel positions : Front: L R
Sampling rate : 48.0 kHz
Frame rate : 46.875 FPS (1024 spf)
Compression mode : Lossy
Stream size : 123 MiB (5%)
Title : English
Language : English
Default : Yes
Forced : No

Audio #2
ID : 3
Format : AAC
Format/Info : Advanced Audio Codec
Format profile : LC
Codec ID : A_AAC
Duration : 54 min 11 s
Bit rate : 317 kb/s
Channel(s) : 2 channels
Channel positions : Front: L R
Sampling rate : 48.0 kHz
Frame rate : 46.875 FPS (1024 spf)
Compression mode : Lossy
Stream size : 123 MiB (5%)
Title : Thai
Language : Thai
Default : No
Forced : No

TWD S08EP09.mkv – 2639969385

Facebook Comments

About the author

one4up .com

Featured

Advertisement