Mini HD Blu-Ray 1080p

[ญี่ปุ่น]-[mini HD] JoJo’s Bizarre Adventure Diamond Is Unbreakable โจโจ้ โจ๋ซ่าส์ ล่าข้ามศตวรรษ -Encode.Other.1080p. [Master]-[พากย์ไทย]

Jojo’s Bizarre Adventure โจโจ้ โจ๋ซ่าส์ ล่าข้ามศตวรรษ ว่าด้วยเรื่องราวที่เกิดขึ้นในปี 1999 ณ เมืองโมริโอ อันแสนสงบสุข มีเหล่าผู้มีพลังพิเศษที่เรียกว่า “สแตนด์” อาศัยอยู่มากมายปะปนไปกับคนธรรมดา รวมไปถึงเด็กหนุ่มนาม ฮิงาชิคาตะ โจสึเกะ ทายาทของโจเซฟ โจสตาร์ ผู้มีพลังสแตนด์ชื่อว่า เครซี่ ไดมอนด์ ที่มีความสามารถในการรักษาอาการบาดเจ็บและซ่อมวัตถุท ี่เสียหายได้ในพริบตา วันหนึ่งเขาได้พบกับ คูโจ โจทาโร่ ชายหนุ่มปริศนาผู้มาพร้อมกับคำเตือนว่าเมืองที่เขาอา ศัยอยู่นั้นมีบางสิ่งบางอย่างที่ชั่วร้ายจ้องทำลายเม ืองที่เขารัก และคนที่สามารถหยุดยั้งเรื่องนี้ได้มีเพียงเขาคนเดีย วเท่านั้น

General
Complete name : JoJo’s Bizarre Adventure Diamond Is Unbreakable.mp4
Format : MPEG-4
Format profile : Base Media
Codec ID : isom (isom/iso2/avc1/mp41)
File size : 818 MiB
Duration : 1 h 58 min
Overall bit rate : 962 kb/s
Movie name : “SZWJMh4YvAv6wd7TcZrun1eE6PblGYbF”
Writing application : Lavf57.83.100

Video
ID : 1
Format : AVC
Format/Info : Advanced Video Codec
Format profile : High@L3.1
Format settings : CABAC / 5 Ref Frames
Format settings, CABAC : Yes
Format settings, ReFrames : 5 frames
Codec ID : avc1
Codec ID/Info : Advanced Video Coding
Duration : 1 h 58 min
Bit rate : 512 kb/s
Width : 720 pixels
Height : 300 pixels
Display aspect ratio : 2.40:1
Frame rate mode : Constant
Frame rate : 23.976 (24000/1001) FPS
Color space : YUV
Chroma subsampling : 4:2:0
Bit depth : 8 bits
Scan type : Progressive
Bits/(Pixel*Frame) : 0.099
Stream size : 435 MiB (53%)
Writing library : x264 core 148 r2643 5c65704
Encoding settings : cabac=1 / ref=5 / deblock=1:0:0 / analyse=0x3:0x113 / me=hex / subme=7 / psy=1 / psy_rd=1.00:0.00 / mixed_ref=1 / me_range=16 / chroma_me=1 / trellis=1 / 8x8dct=1 / cqm=0 / deadzone=21,11 / fast_pskip=1 / chroma_qp_offset=-2 / threads=4 / lookahead_threads=4 / sliced_threads=1 / slices=4 / nr=0 / decimate=1 / interlaced=0 / bluray_compat=0 / constrained_intra=0 / bframes=0 / weightp=2 / keyint=250 / keyint_min=23 / scenecut=40 / intra_refresh=0 / rc=abr / mbtree=0 / bitrate=512 / ratetol=1.0 / qcomp=0.60 / qpmin=0 / qpmax=69 / qpstep=4 / ip_ratio=1.40 / aq=1:1.00

Audio
ID : 2
Format : AAC
Format/Info : Advanced Audio Codec
Format profile : LC
Codec ID : mp4a-40-2
Duration : 1 h 58 min
Bit rate mode : Constant
Bit rate : 446 kb/s
Channel(s) : 2 channels
Channel(s)_Original : 6 channels
Channel positions : Front: L C R, Side: L R, LFE
Sampling rate : 48.0 kHz
Frame rate : 46.875 FPS (1024 SPF)
Compression mode : Lossy
Stream size : 380 MiB (46%)
Default : Yes
Alternate group : 1

JoJo’s Bizarre Adventure Diamond Is Unbreakable.mp4 – 857561739

Facebook Comments

About the author

one4up .com

Featured

Posts

Advertisement