Mini HD Blu-Ray 1080p

[ฝรั่ง]-[*ร้อนๆ*] Thor: Ragnarok (2017) ศึกอวสานเทพเจ้า [พากย์ไทย AAC + อังกฤษ 5.1] [ซับไทย+อังกฤษ] + Extras-WEB-DL.H.264.1080p. [Master]-[พากย์ไทย บรรยายไทย]

 

เรื่องย่อ
Thor: Ragnarok เป็นภาพยนตร์ภาคที่ 3 ของ Thor เทพเจ้าสายฟ้า ในภาคนี้ธอร์ (รับบทโดย คริส เฮมส์เวิร์ธ) ถูกเนรเทศไปยังสุดขอบจักรวาล กลายเป็นนักโทษโดยปราศจากค้อนคู่ใจ เขาจะต้องหาทางกลับไปยังแอสการ์ดเพื่อหยุดยั้งมหาสงครามที่จะทำลายล้างดินแดนแห่งเทพ และจบสิ้นอารยธรรมแห่งแอสการ์ด ภายใต้เงื้อมมือของวายร้ายคนใหม่ที่ทรงพลังและโหดเหี้ยมที่สุด เฮล่า (รับบทโดย เคท แบลนเชตต์) แต่ก่อนอื่นเขาจะต้องเอาชีวิตรอดจากการต่อสู้แบบฉบับกลาดิเอเตอร์ให้ได้เสียก่อน ซึ่งคู่ต่อสู้ในคราวนี้เป็นถึงหนึ่งในทีมอเวนเจอร์ที่เขาคุ้นเคย…เดอะ ฮัลค์!

Screenshot

General
Format                                   : MPEG-4
Format profile                           : Base Media / Version 2
Codec ID                                 : mp42 (mp42/isom)
File size                                : 4.59 GiB
Duration                                 : 2 h 10 min
Overall bit rate mode                    : Variable
Overall bit rate                         : 5 017 kb/s
Movie name                               : Thor: Ragnarok
Performer                                : Taika Waititi
Performer/Sorted by                      : Taika Waititi
Director                                 : Taika Waititi
Actor                                    : Chris Hemsworth / Tom Hiddleston / Cate Blanchett / Idris Elba / Jeff Goldblum / Tessa Thompson / Karl Urban / Mark Ruffalo / Anthony Hopkins / Benedict Cumberbatch / Taika Waititi / Rachel House / Clancy Brown / Tadanobu Asano / Ray Stevenson / Zachary Levi
Screenplay by                            : Eric Pearson / Craig Kyle / Christopher Yost
Producer                                 : Kevin Feige
Production studio                        : Marvel
Genre                                    : Action & Adventure
ContentType                              : Short Film
Des–cription                              : In Marvel Studios’ Thor: Ragnarok, Thor is imprisoned on the other side of the universe without his
Recorded date                            : UTC 2017-11-02 07:00:00
Encoded date                             : UTC 2018-02-20 09:13:47
Tagged date                              : UTC 2018-02-20 09:20:57
Copyright                                : ©      2017 Marvel
Cover                                    : Yes
Rating                                   : None
AppleStoreAccount                        :
ownr                                     :
AppleStoreCatalogID                      : 1296548405
GenreID                                  : 4401
AppleStoreCountry                        : 143475
PurchaseDate                             : 2018-02-20 09:02:47
Title/Sort                               : Thor: Ragnarok
Flavour                                  : 18:1080p
ContentRating                            : th-movie|น 15+|350|
LongDes–cription                          : In Marvel Studios’ Thor: Ragnarok, Thor is imprisoned on the other side of the universe without his mighty hammer and finds himself in a race against time to get back to Asgard to stop Ragnarok – the destruction of his home world and the end of Asgardian civilization at the hands of an all-powerful new threat, the ruthless Hela. But first he must survive a deadly gladiatorial contest that pits him against his former ally and fellow Avenger – the Incredible Hulk!

Video
ID                                       : 1
Format                                   : AVC
Format/Info                              : Advanced Video Codec
Format profile                           : High@L4
Format settings                          : CABAC / 5 Ref Frames
Format settings, CABAC                   : Yes
Format settings, RefFrames               : 5 frames
Codec ID                                 : avc1
Codec ID/Info                            : Advanced Video Coding
Duration                                 : 2 h 10 min
Bit rate                                 : 4 505 kb/s
Width                                    : 1 920 pixels
Height                                   : 804 pixels
Display aspect ratio                     : 2.40:1
Frame rate mode                          : Variable
Frame rate                               : 23.976 (24000/1001) FPS
Minimum frame rate                       : 23.077 FPS
Maximum frame rate                       : 24.000 FPS
Color space                              : YUV
Chroma subsampling                       : 4:2:0
Bit depth                                : 8 bits
Scan type                                : Progressive
Bits/(Pixel*Frame)                       : 0.122
Stream size                              : 4.12 GiB (90%)
Language                                 : English
Encoded date                             : UTC 2018-02-20 09:13:47
Tagged date                              : UTC 2018-02-20 09:20:57
Color range                              : Limited
Color primaries                          : BT.709
Transfer characteristics                 : BT.709
Matrix coefficients                      : BT.709
Menus                                    : 7

Audio #1
ID                                       : 2
Format                                   : AC-3
Format/Info                              : Audio Coding 3
Codec ID                                 : ac-3
Duration                                 : 2 h 10 min
Bit rate mode                            : Constant
Bit rate                                 : 384 kb/s
Channel(s)                               : 6 channels
Channel positions                        : Front: L C R, Side: L R, LFE
Sampling rate                            : 48.0 kHz
Frame rate                               : 31.250 FPS (1536 SPF)
Bit depth                                : 16 bits
Compression mode                         : Lossy
Stream size                              : 358 MiB (8%)
Language                                 : English
Service kind                             : Complete Main
Default                                  : Yes
Alternate group                          : 1
Encoded date                             : UTC 2018-02-20 09:13:47
Tagged date                              : UTC 2018-02-20 09:20:57

Audio #2
ID                                       : 3
Format                                   : AAC
Format/Info                              : Advanced Audio Codec
Format profile                           : LC
Codec ID                                 : mp4a-40-2
Duration                                 : 2 h 10 min
Bit rate mode                            : Variable
Bit rate                                 : 126 kb/s
Maximum bit rate                         : 201 kb/s
Channel(s)                               : 2 channels
Channel positions                        : Front: L R
Sampling rate                            : 48.0 kHz
Frame rate                               : 46.875 FPS (1024 SPF)
Compression mode                         : Lossy
Stream size                              : 117 MiB (2%)
Language                                 : Thai
Default                                  : No
Alternate group                          : 1
Encoded date                             : UTC 2018-02-20 09:13:47
Tagged date                              : UTC 2018-02-20 09:20:57

Text #1
ID                                       : 4
Format                                   : Timed Text
Muxing mode                              : sbtl
Codec ID                                 : tx3g
Duration                                 : 2 h 10 min
Bit rate mode                            : Variable
Bit rate                                 : 0 b/s
Stream size                              : 408 Bytes (0%)
Language                                 : Thai
Default                                  : Yes
Forced                                   : Yes
Alternate group                          : 2
Encoded date                             : UTC 2018-02-20 09:13:47
Tagged date                              : UTC 2018-02-20 09:13:51

Text #2
ID                                       : 5
Format                                   : Timed Text
Muxing mode                              : sbtl
Codec ID                                 : tx3g
Duration                                 : 2 h 10 min
Bit rate mode                            : Variable
Bit rate                                 : 143 b/s
Stream size                              : 137 KiB (0%)
Language                                 : Thai
Default                                  : No
Forced                                   : No
Alternate group                          : 2
Encoded date                             : UTC 2018-02-20 09:13:47
Tagged date                              : UTC 2018-02-20 09:14:09

Text #3
ID                                       : 6
Format                                   : Timed Text
Muxing mode                              : sbtl
Codec ID                                 : tx3g
Duration                                 : 2 h 10 min
Bit rate mode                            : Variable
Bit rate                                 : 91 b/s
Stream size                              : 86.4 KiB (0%)
Language                                 : English
Default                                  : No
Forced                                   : No
Alternate group                          : 2
Encoded date                             : UTC 2018-02-20 09:13:47
Tagged date                              : UTC 2018-02-20 09:14:09

Menu
ID                                       : 7
Codec ID                                 : text
Duration                                 : 2 h 10 min
Encoded date                             : UTC 2018-02-20 09:13:51
Tagged date                              : UTC 2018-02-20 09:13:51
Menu For                                 : 1
00:00:00.000                             : The Great Prophecy
00:06:20.000                             : The Tragedy of Loki of Asgard
00:14:11.000                             : A Worthy Inclusion
00:22:12.000                             : The Goddess of Death
00:26:39.000                             : “Are You A Fighter, Or Are You Food?”
00:31:29.000                             : Heiress Apparent
00:35:03.000                             : The Grandmaster
00:42:49.000                             : The Eternal Flame
00:48:30.000                             : The Contest of Champions
00:59:38.000                             : The Resistance
01:07:58.000                             : Hotheaded Fools
01:17:30.000                             : The Revengers
01:27:25.000                             : “The Revolution Has Begun”
01:36:08.000                             : Ready For War
01:42:35.000                             : “Asgard Is Not A Place”
01:49:20.000                             : “What Were You The God Of Again?”
01:54:57.000                             : Ragnarok
02:00:37.000                             : End Credits
Bit rate mode                            : VBR

 

https://www.youtube.com/watch?v=h7RYBQ2Zfe4

 


Thor_ Ragnarok (1080p HD).mp4 – 4923966860

Facebook Comments

About the author

one4up .com

Featured

Posts

Advertisement