หนังซูม

[ฝรั่ง]-[ใหม่!ก่อนใคร] • [Zoom V.1] • [* อภิมหาหนังไซไฟถล่มโลกอีกเรื่องของ ดีน เดฟลิน *] • Geostorm (2017) : จีโอสตอร์ม เมฆาถล่มโลก • [* HDCAM.X264.ThaiRong2.0 CpT@CtHts *] • [*CtHts@SiamBIT*] • [พากย์ไทยโรง 2.0 + เสียงอังกฤษ 2.0] • [หนังซูม] • [พากย์ไทยโรง]

หนังไซไฟถล่มโลกของ ผกก.ดีน เดฟลิน โปรดิวเซอร์ผู้เคยสร้าง Independence Day 1 และ 2
เมื่อดัตช์บอย ดาวเทียมป้องกันภัยพิบัติโลกเกิดปัญหาทำให้พี่น้องตระกูลลอสันที่ไม่ค่อยลงรอยกันอย่าง “เจค” และ “แม็กซ์” ต้องร่วมมือกันหาทางปิดระบบก่อนเกิดมหาภัยพิบัติทั่วโลก!

••• HDCAM.X264.ThaiRong2.0_CpT@CtHts •••
พากย์ไทยโรง 2.0 + เสียงอังกฤษ 2.0

Geostorm เรื่องราวสุดระทึกใน Geostorm เกิดขึ้นเมื่อดาวเทียมควบคุมภูมิอากาศของโลกเกิดความเสียหาย จนทำให้สภาพอากาศทั่วโลกแปรปรวนถึงขีดสุด แต่เมื่อชายสองพี่น้องเดินทางขึ้นไปซ่อมแซมดาวเทียมในอวกาศ สิ่งที่พวกเขาค้นพบคือแผนการลอบสังหารประธานาธิบดีสหรัฐฯ ที่ซ่อนอยู่เบื้องหลังหายนะครั้งนี้

Format : Matroska
File size : 1.77 GiB
Duration : 1 h 41 min
Overall bit rate : 2 481 kb/s
Movie name : Geostorm.2017.HDCAM.X264.ThaiRong2.0_CpT@CtHts

Video
ID : 1
Format : AVC
Format/Info : Advanced Video Codec
Format profile : High@L4.2
Format settings, CABAC : Yes
Format settings, ReFrames : 6 frames
Codec ID : V_MPEG4/ISO/AVC
Duration : 1 h 41 min
Bit rate mode : Variable
Bit rate : 2 100 kb/s
Maximum bit rate : 62.5 Mb/s
Width : 720 pixels
Height : 320 pixels
Display aspect ratio : 2.25:1
Frame rate mode : Constant
Frame rate : 29.970 (30000/1001) FPS
Color space : YUV
Chroma subsampling : 4:2:0
Bit depth : 8 bits
Scan type : Progressive
Bits/(Pixel*Frame) : 0.304
Stream size : 1.49 GiB (84%)
Title : Geostorm.2017.HDCAM.X264.ThaiRong2.0_CpT@CtHts
Writing library : x264 core 148 r2744 b97ae06
Encoding settings : cabac=1 / ref=7 / deblock=1:0:0 / analyse=0x3:0x133 / me=umh / subme=9 / psy=1 / psy_rd=1.00:0.00 / mixed_ref=1 / me_range=18 / chroma_me=1 / trellis=2 / 8x8dct=1 / cqm=0 / deadzone=21,11 / fast_pskip=0 / chroma_qp_offset=-2 / threads=16 / lookahead_threads=1 / sliced_threads=0 / slices=4 / nr=0 / decimate=1 / interlaced=0 / bluray_compat=0 / constrained_intra=0 / bframes=3 / b_pyramid=1 / b_adapt=2 / b_bias=0 / direct=3 / weightb=1 / open_gop=0 / weightp=2 / keyint=300 / keyint_min=29 / scenecut=40 / intra_refresh=0 / rc_lookahead=50 / rc=abr / mbtree=1 / bitrate=2100 / ratetol=1.0 / qcomp=0.60 / qpmin=10 / qpmax=51 / qpstep=4 / vbv_maxrate=62500 / vbv_bufsize=78125 / nal_hrd=vbr / filler=0 / ip_ratio=1.40 / aq=1:1.00
Language : English
Default : Yes
Forced : No
Color range : Limited
Color primaries : BT.709
Transfer characteristics : BT.709
Matrix coefficients : BT.709

Audio #1
ID : 2
Format : AC-3
Format/Info : Audio Coding 3
Mode extension : CM (complete main)
Format settings, Endianness : Big
Codec ID : A_AC3
Duration : 1 h 41 min
Bit rate mode : Constant
Bit rate : 192 kb/s
Channel(s) : 2 channels
Channel positions : Front: L R
Sampling rate : 48.0 kHz
Frame rate : 31.250 FPS (1536 spf)
Bit depth : 16 bits
Compression mode : Lossy
Stream size : 140 MiB (8%)
Title : ThaiRong 2.0 AC-3 By ~Mr.Captain~
Language : Thai
Default : Yes
Forced : No

Audio #2
ID : 3
Format : MPEG Audio
Format version : Version 1
Format profile : Layer 3
Codec ID : A_MPEG/L3
Codec ID/Hint : MP3
Duration : 1 h 41 min
Bit rate mode : Constant
Bit rate : 192 kb/s
Channel(s) : 2 channels
Sampling rate : 44.1 kHz
Frame rate : 38.281 FPS (1152 spf)
Compression mode : Lossy
Delay relative to video : 50 ms
Stream size : 140 MiB (8%)
Title : English 2.0 mp3
Writing library : LAME3.99.5
Language : English
Default : No
Forced : No

Geostorm.2017.HDCAM.X264.ThaiRong2.0_CpT@CtHts.mkv – 1897463668

Facebook Comments

About the author

one4up .com

Featured

Posts

หนังซูม

[ฝรั่ง]-[ใหม่!ก่อนใคร] • [Zoom V.1] • [* อภิมหาหนังไซไฟถล่มโลกอีกเรื่องของ ดีน เดฟลิน *] • Geostorm (2017) : จีโอสตอร์ม เมฆาถล่มโลก • [* HDCAM.X264.ThaiRong2.0 CpT@CtHts *] • [*CtHts@SiamBIT*] • [พากย์ไทยโรง 2.0 + เสียงอังกฤษ 2.0] • [หนังซูม] • [พากย์ไทยโรง]

Mini HD Blu-Ray 1080p

[ฝรั่ง]-ใหม่ร้อนๆ! [* เล็กพริกขี้หนู 1080p Super HQ *] 2:22 (2017) / 2:22 เวลาเฉียดตาย [*CtHts@SiamBIT*] • [พากย์ไทย 5.1 + เสียงอังกฤษ DTS] • [บรรยายไทย + อังกฤษ] • [เสียงไทย + ซับไทย From MASTER +ซับ PGS คมชัด] *• ไฟล์เล็ก 1080p คุณภาพสูง! •*

Advertisement