Mini HD Blu-Ray 1080p

[ฝรั่ง]-[Mini-HD]-[** คมชัดสะใจ ทั้งภาพ และ เสียง **] It Follows (2014) อย่าให้มันตามมา [Master] [1080p HQ.] [เสียงไทยมาสเตอร์ 5.1 + ENG DTS ] [บรรยายไทย + อังกฤษ] [เสียง + ซับ From MASTER : + ซับไทย PGS คมชัดถึงใจ] [.MKV]-MiniBD.DTS.1080p. [Modified]-[พากย์ไทย บรรยายไทย]

ราวของ เจย์ เด็กสาววัยรุ่นในชุมชนชานเมืองที่อยากลองมีประสบการณ ์ทางเพศ อารมณ์เปลี่ยวได้นำเธอเตลิดไปพบกับชายคนหนึ่งซึ่งลัก พาตัวเธอไป ก่อนจะนำกลับมาทิ้งหน้าบ้าน ทว่านี้เป็นเพียงจุดเริ่มต้นของฝันร้ายเมื่อเธอเริ่ม รู้สึกว่ามีอะไรบางอย่างที่ลึกลับติดตามเธอกลับมาด้ว ย!!!
Complete name                            : D:การ์ตูนIt Follows (2014) อย่าให้มันตามมาIt.Follows.2014.1080p.SuperHQ.DTS.x264.MASTER-siambit.tv .mkv
Format                                   : Matroska
Format version                           : Version 4 / Version 2
File size                                : 4.23 GiB
Duration                                 : 1h 40mn
Overall bit rate                         : 6 045 Kbps
Movie name                               : www.siambit.me.com
Encoded date                             : UTC 2015-11-26 15:45:18
Writing application                      : mkvmerge v8.1.0 ( Psychedelic Postcard ) 32bit
Writing library                          : libebml v1.3.1 + libmatroska v1.4.2

Video
ID                                       : 1
Format                                   : AVC
Format/Info                              : Advanced Video Codec
Format profile                           : High@L4.1
Format settings, CABAC                   : Yes
Format settings, ReFrames                : 5 frames
Codec ID                                 : V_MPEG4/ISO/AVC
Duration                                 : 1h 40mn
Bit rate                                 : 4 774 Kbps
Width                                    : 1 920 pixels
Height                                   : 800 pixels
Display aspect ratio                     : 2.40:1
Frame rate mode                          : Constant
Frame rate                               : 23.976 fps
Color space                              : YUV
Chroma subsampling                       : 4:2:0
Bit depth                                : 8 bits
Scan type                                : Progressive
Bits/(Pixel*Frame)                       : 0.130
Stream size                              : 3.31 GiB (78%)
Title                                    : It.Follows.2014.1080p.SuperHQ.DTS.x264.MASTER-siambit.tv
Writing library                          : x264 core 146 r2538 121396c
Encoding settings                        : cabac=1 / ref=5 / deblock=1:-3:-3 / analyse=0x3:0x113 / me=umh / subme=11 / psy=1 / psy_rd=1.00:0.20 / mixed_ref=1 / me_range=64 / chroma_me=1 / trellis=2 / 8x8dct=1 / cqm=0 / deadzone=21,11 / fast_pskip=0 / chroma_qp_offset=-3 / threads=24 / lookahead_threads=2 / sliced_threads=0 / nr=0 / decimate=1 / interlaced=0 / bluray_compat=0 / constrained_intra=0 / bframes=5 / b_pyramid=2 / b_adapt=2 / b_bias=0 / direct=3 / weightb=1 / open_gop=0 / weightp=2 / keyint=250 / keyint_min=23 / scenecut=40 / intra_refresh=0 / rc_lookahead=120 / rc=2pass / mbtree=1 / bitrate=4774 / ratetol=1.0 / qcomp=0.60 / qpmin=0 / qpmax=69 / qpstep=4 / cplxblur=20.0 / qblur=0.5 / vbv_maxrate=99999 / vbv_bufsize=99999 / nal_hrd=none / filler=0 / ip_ratio=1.40 / aq=1:1.00
Language                                 : English
Default                                  : Yes
Forced                                   : No

Audio #1
ID                                       : 2
Format                                   : AC-3
Format/Info                              : Audio Coding 3
Mode extension                           : CM (complete main)
Format settings, Endianness              : Big
Codec ID                                 : A_AC3
Duration                                 : 1h 40mn
Bit rate mode                            : Constant
Bit rate                                 : 448 Kbps
Channel(s)                               : 6 channels
Channel positions                        : Front: L C R, Side: L R, LFE
Sampling rate                            : 48.0 KHz
Bit depth                                : 16 bits
Compression mode                         : Lossy
Delay relative to video                  : 3s 0ms
Stream size                              : 321 MiB (7%)
Title                                    : AC3 DVD MASTER siambit.me
Language                                 : Thai
Default                                  : Yes
Forced                                   : Yes

Audio #2
ID                                       : 3
Format                                   : DTS
Format/Info                              : Digital Theater Systems
Mode                                     : 16
Format settings, Endianness              : Big
Codec ID                                 : A_DTS
Duration                                 : 1h 40mn
Bit rate mode                            : Constant
Bit rate                                 : 755 Kbps
Channel(s)                               : 6 channels
Channel positions                        : Front: L C R, Side: L R, LFE
Sampling rate                            : 48.0 KHz
Bit depth                                : 24 bits
Compression mode                         : Lossy
Stream size                              : 541 MiB (12%)
Title                                    : DTS siambit.me
Language                                 : English
Default                                  : No
Forced                                   : No

Text #1
ID                                       : 4
Format                                   : VobSub
Codec ID                                 : S_VOBSUB
Codec ID/Info                            : The same subtitle format used on DVDs
Title                                    : 1080P AS siambit.me
Language                                 : Thai
Default                                  : No
Forced                                   : No

Text #2
ID                                       : 5
Format                                   : VobSub
Codec ID                                 : S_VOBSUB
Codec ID/Info                            : The same subtitle format used on DVDs
Title                                    : 1080P AS YELLOW siambit.me
Language                                 : Thai
Default                                  : No
Forced                                   : No

Text #3
ID                                       : 6
Format                                   : VobSub
Codec ID                                 : S_VOBSUB
Codec ID/Info                            : The same subtitle format used on DVDs
Title                                    : 1080P AS UNDER
Language                                 : Thai
Default                                  : No
Forced                                   : No

Text #4
ID                                       : 7
Format                                   : VobSub
Codec ID                                 : S_VOBSUB
Codec ID/Info                            : The same subtitle format used on DVDs
Title                                    : 480P AS
Language                                 : Thai
Default                                  : No
Forced                                   : No

Text #5
ID                                       : 8
Format                                   : PGS
Codec ID                                 : S_HDMV/PGS
Codec ID/Info                            : The same subtitle format used on BDs/HD-DVDs
Title                                    : AS siambit.me
Language                                 : Thai
Default                                  : Yes
Forced                                   : Yes

Text #6
ID                                       : 9
Format                                   : PGS
Codec ID                                 : S_HDMV/PGS
Codec ID/Info                            : The same subtitle format used on BDs/HD-DVDs
Title                                    : AS UNDER siambit.me
Language                                 : Thai
Default                                  : No
Forced                                   : No

Text #7
ID                                       : 10
Format                                   : PGS
Codec ID                                 : S_HDMV/PGS
Codec ID/Info                            : The same subtitle format used on BDs/HD-DVDs
Title                                    : BD MASTER
Language                                 : English
Default                                  : No
Forced                                   : No

 
It.Follows.2014.1080p.SuperHQ.DTS.x264.MASTER-Zakky .mkv – 4545349995

Facebook Comments

About the author

one4up .com

Add Comment

Click here to post a comment

Featured

Posts

Mini HD Blu-Ray 1080p

[ฝรั่ง]-[Mini-HD]-[** เวอร์ชั่น Original Uncut ฉบับเต็มไม่มีตัด **] The Dreamers : Original Uncut (2003) รักตามฝัน ไม่มีวันสลาย [Master] [1080p HQ.] [เสียงไทยมาสเตอร์ 5.1 + ENG DTS ] [บรรยายไทย + อังกฤษ] [เสียง + ซับ From MASTER : + ซับไทย PGS คมชัดถึงใจ] [.MKV]-MiniBD.DTS.1080p. [Modified]-[พากย์ไทย บรรยายไทย]

HD Blu-Ray 1080p

[ฝรั่ง]-ใหม่ร้อนๆ! +[* พิเศษ ก่อนกำหนดของไทยออก *] The House (2017) : เดอะ เฮาส์ เปลี่ยนบ้านให้เป็นบ่อน [*CtHts@SiamBIT*] • [เสียงอังกฤษ DTS] • [บรรยายไทย + อังกฤษ] • [Soundtrack บรรยายไทย] • [ซับไทย From Blu-Ray MASTER +ซับ PGS คมชัด] • [ เล็กพริกขี้หนู 1080p Super HQ ] Or *• ไฟล์เล็ก 1080p คุณภาพสูง! •*

HD Blu-Ray 1080p Mini HD Blu-Ray 1080p

[ฝรั่ง]-ใหม่ร้อนๆ! [* เล็กพริกขี้หนู 1080p Super HQ *] Bring It On: Worldwide #Cheersmack (2017) : [*CtHts@SiamBIT*] • [เสียงอังกฤษ DTS] • [บรรยายไทย + อังกฤษ] • [Soundtrack บรรยายไทย] • [ซับไทย From Blu-Ray MASTER +ซับ PGS คมชัด] *• ไฟล์เล็ก 1080p คุณภาพสูง! •*

Advertisement