4K UHD

[ฝรั่ง]-[4K.HDR] Star.Trek.Beyond.(2016).2160p,REMUX.HEVC.Modified[พากย์ไทย บรรยายไทย]

ชื่อภาษาอังกฤษ : Star Trek Beyond
ชื่อภาษาไทย : สตาร์เทร็ค: ข้ามขอบจักรวาล
ประเภท : ภาพยนตร์
แนว : แอคชั่น / ผจญภัย / วิทยาศาสตร์
ผู้กำกับ : Justin Lin
ค่าย : Paramount Pictures

เรื่องย่อ
เรื่องราวน่าตื่นเต้นของ Star Trek Beyond จะพาผู้ชมร่วมผจญภัยไปกับภารกิจ 5 ปีบนยานเอ็นเตอร์ไพรส์สู่การเดินทางที่ไม่เคยมีมนุษย์คนไหนไปถึงมาก่อนโดยลูกเรือบนยานจะได้ค้นพบสิ่งมีชีวิตสายพันธุ์ใหม่และอารยธรรมของเหล่าเอเลี่ยนซึ่งเรื่องราวทั้งหมดไม่เคยถูกพูดถึงในเวอร์ชั่นหนังหรือซีรีส์เวอร์ชั่นไหนมาก่อน

 

[4K HDR] Star.Trek.Beyond.(2016).2160p,REMUX.HEVC.Modified
TrueHD.7.1.Atmos:BluRay 4K
AC3 THAI5.1: BluRay 2K@siambit
เสียงไทย ซับไทย :siambit

Format                         : Matroska
Format version                 : Version 4 / Version 2
File size                      : 51.9 GiB
Duration                       : 2 h 2 min
Overall bit rate mode          : Variable
Overall bit rate               : 60.7 Mb/s
Encoded date                   : UTC 2017-10-22 09:42:54
Writing application            : mkvmerge v17.0.0 ( Be Ur Friend ) 64-bit
Writing library                : libebml v1.3.5 + libmatroska v1.4.8

Video
ID                             : 1
Format                         : HEVC
Format/Info                    : High Efficiency Video Coding
Format profile                 : Main 10@L5.1@High
Codec ID                       : V_MPEGH/ISO/HEVC
Duration                       : 2 h 2 min
Bit rate                       : 55.0 Mb/s
Width                          : 3 840 pixels
Height                         : 2 160 pixels
Display aspect ratio           : 16:9
Frame rate mode                : Constant
Frame rate                     : 23.976 (24000/1001) FPS
Color space                    : YUV
Chroma subsampling             : 4:2:0 (Type 2)
Bit depth                      : 10 bits
Bits/(Pixel*Frame)             : 0.277
Stream size                    : 47.0 GiB (91%)
Writing library                : ATEME Titan File 3.7.6 (4.7.6.101)
Language                       : English
Default                        : Yes
Forced                         : No
Color range                    : Limited
Color primaries                : BT.2020
Transfer characteristics       : PQ
Matrix coefficients            : BT.2020 non-constant
Mastering display color primar : R: x=0.680000 y=0.320000, G: x=0.265000 y=0.690000, B: x=0.150000 y=0.060000, White point: x=0.312700 y=0.329000 Mastering display luminance    : min: 0.0050 cd/m2, max: 1000.0000 cd/m2

Audio #1
ID                             : 2
Format                         : TrueHD
Format profile                 : TrueHD+Atmos / TrueHD
Codec ID                       : A_TRUEHD
Duration                       : 2 h 2 min
Bit rate mode                  : Variable
Bit rate                       : 4 367 kb/s
Maximum bit rate               : 7 641 kb/s
Channel(s)                     : Object Based / 8 channels
Channel positions              : Object Based / Front: L C R, Side: L R, Back: L R, LFE
Sampling rate                  :  / 48.0 kHz
Frame rate                     : 1 200.000 FPS (40 SPF)
Compression mode               : Lossless
Stream size                    : 3.73 GiB (7%)
Title                          : TrueHD 7.1.Atmos
Language                       : English
Default                        : No
Forced                         : No

Audio #2
ID                             : 3
Format                         : AC-3
Format/Info                    : Audio Coding 3
Format settings, Endianness    : Big
Codec ID                       : A_AC3
Duration                       : 2 h 2 min
Bit rate mode                  : Constant
Bit rate                       : 640 kb/s
Channel(s)                     : 6 channels
Channel positions              : Front: L C R, Side: L R, LFE
Sampling rate                  : 48.0 kHz
Frame rate                     : 31.250 FPS (1536 SPF)
Bit depth                      : 16 bits
Compression mode               : Lossy
Stream size                    : 560 MiB (1%)
Title                          : THAI 5.1 AC3 2K
Language                       : Thai
Service kind                   : Complete Main
Default                        : Yes
Forced                         : No

Audio #3
ID                             : 4
Format                         : AC-3
Format/Info                    : Audio Coding 3
Format settings, Endianness    : Big
Codec ID                       : A_AC3
Duration                       : 2 h 2 min
Bit rate mode                  : Constant
Bit rate                       : 640 kb/s
Channel(s)                     : 6 channels
Channel positions              : Front: L C R, Side: L R, LFE
Sampling rate                  : 48.0 kHz
Frame rate                     : 31.250 FPS (1536 SPF)
Bit depth                      : 16 bits
Compression mode               : Lossy
Stream size                    : 560 MiB (1%)
Title                          : 4K
Language                       : English
Service kind                   : Complete Main
Default                        : No
Forced                         : No

Text #1
ID                             : 5
Format                         : PGS
Muxing mode                    : zlib
Codec ID                       : S_HDMV/PGS
Codec ID/Info                  : Picture based subtitle format used on BDs/HD-DVDs
Duration                       : 2 h 0 min
Bit rate                       : 23.0 kb/s
Count of elements              : 2356
Stream size                    : 19.9 MiB (0%)
Title                          : THAI PGS  2K
Language                       : Thai
Default                        : No
Forced                         : No

Text #2
ID                             : 6
Format                         : PGS
Muxing mode                    : zlib
Codec ID                       : S_HDMV/PGS
Codec ID/Info                  : Picture based subtitle format used on BDs/HD-DVDs
Duration                       : 1 h 51 min
Bit rate                       : 33.2 kb/s
Count of elements              : 2532
Stream size                    : 26.5 MiB (0%)
Title                          : ENG PGS  2K
Language                       : English
Default                        : No
Forced                         : No

Text #3
ID                             : 7
Format                         : UTF-8
Codec ID                       : S_TEXT/UTF8
Codec ID/Info                  : UTF-8 Plain Text
Duration                       : 59 min 3 s
Bit rate                       : 0 b/s
Count of elements              : 15
Stream size                    : 365 Bytes (0%)
Title                          : Forced [iTunes]
Language                       : English
Default                        : Yes
Forced                         : No

[4K.HDR]Star.Trek.Beyond.&_40;2016&_41;.2160pREMUX.HEVC.ExKinoRay-Thai5.1.mkv – 55731876862

Facebook Comments

About the author

one4up .com

Add Comment

Click here to post a comment

Advertisement