4K UHD

[ฝรั่ง]-[4K HDR.REMUX] Iron.Man.2008.2160p Iron Man 1 มหาประลัย คนเกราะเหล็ก 2008.BluRay.REMUX.HEVC.DTS-HD.MA.5.1-FGT Thai5.1-Blu-ray.H.265.2160p. [Master]-[พากย์ไทย บรรยายไทย]

 

Iron.Man.2008.2160p.BluRay.REMUX.Thai5.1

DTS-HD.MA.5.1:BluRay 4K
AC3 THAI5.1: BluRay 2K
ซับไทย VobSub :DVD zone 3
ซับไทย  :BluRay 2K
เน็ทบ้าน
**ปี 2008 ระบบเสียง 5.1 เท่านั้น และไม่ใช่การถ่ายทำด้วยกล้อง 4 K

เรื่องย่อ
โทนี่ สตาร์ค เป็นนักประดิษฐ์และนักอุตสาหกรรม มหาเศรษฐีพันล้านที่ถูกลักพาตัวไปขณะอยู่ต่างบ้านต่างเมือง แล้วก็ถูกบีบบังคับให้คิดค้นอาวุธที่มีประสิทธิภาพการทำลายล้างสูง แทนที่เขาจะใช้สติปัญญาอันปราดเปรื่อง และแนวคิดอัจฉริยะประดิษฐ์ตามคำสั่ง แต่ว่าโทนี่กลับสร้างชุดเกราะไฮเทค และหนีรอดการถูกจองจำมาได้ พอกลับมายังอเมริกาโทนี่ก็ต้องเผชิญหน้ากับอดีต และล่วงรู้แผนการชั่วร้ายที่มุ่งทำลายล้างโลก เขาจึงต้องสวมชุดเกราะทรงพลัง และปฏิญาณว่าจะพิทักษ์โลกใบนี้ในนาม ไอรอน แมน

Video
ID                             : 1
Format                         : HEVC
Format/Info                    : High Efficiency Video Coding
Format profile                 : Main 10@L5.1@High
Codec ID                       : V_MPEGH/ISO/HEVC
Duration                       : 2 h 6 min
Bit rate                       : 56.0 Mb/s
Width                          : 3 840 pixels
Height                         : 2 160 pixels
Display aspect ratio           : 16:9
Frame rate mode                : Constant
Frame rate                     : 23.976 (23976/1000) FPS
Standard                       : Component
Color space                    : YUV
Chroma subsampling             : 4:2:0 (Type 2)
Bit depth                      : 10 bits
Bits/(Pixel*Frame)             : 0.282
Stream size                    : 49.4 GiB (92%)
Title                          : HDR HEVC
Default                        : Yes
Forced                         : No
Color range                    : Limited
Color primaries                : BT.2020
Transfer characteristics       : PQ
Matrix coefficients            : BT.2020 non-constant
Mastering display color primar : R: x=0.680000 y=0.320000, G: x=0.265000

y=0.690000, B: x=0.150000 y=0.060000, White point: x=0.312700 y=0.329000
Mastering display luminance    : min: 0.0050 cd/m2, max: 1000.0000 cd/m2

Audio #1
ID                             : 2
Format                         : DTS
Format/Info                    : Digital Theater Systems
Format profile                 : MA / Core
Mode                           : 16
Format settings, Endianness    : Big
Codec ID                       : A_DTS
Duration                       : 2 h 6 min
Bit rate mode                  : Variable / Constant
Bit rate                       : 4 046 kb/s / 1 509 kb/s
Channel(s)                     : 6 channels
Channel positions              : Front: L C R, Side: L R, LFE
Sampling rate                  : 48.0 kHz
Frame rate                     : 93.750 FPS (512 SPF)
Bit depth                      : 24 bits
Compression mode               : Lossless / Lossy
Stream size                    : 3.57 GiB (7%)
Title                          : DTS-HD
Language                       : English
Default                        : No
Forced                         : No

Audio #2
ID                             : 3
Format                         : AC-3
Format/Info                    : Audio Coding 3
Format settings, Endianness    : Big
Codec ID                       : A_AC3
Duration                       : 2 h 6 min
Bit rate mode                  : Constant
Bit rate                       : 640 kb/s
Channel(s)                     : 6 channels
Channel positions              : Front: L C R, Side: L R, LFE
Sampling rate                  : 48.0 kHz
Frame rate                     : 31.250 FPS (1536 SPF)
Bit depth                      : 16 bits
Compression mode               : Lossy
Delay relative to video        : 20 s 500 ms
Stream size                    : 577 MiB (1%)
Title                          : [THAI AC3 FROM BLU-RAY MASTER]

 

Language                       : Thai
Service kind                   : Complete Main
Default                        : Yes
Forced                         : Yes

Text #1
ID                             : 4
Format                         : VobSub
Muxing mode                    : zlib
Codec ID                       : S_VOBSUB
Codec ID/Info                  : Picture based subtitle format used on DVDs
Duration                       : 2 h 4 min
Bit rate                       : 6 550 b/s
Count of elements              : 1295
Stream size                    : 5.85 MiB (0%)
Title                          : [SUB THAI 1080P FROM BLU-RAY]
Language                       : Thai
Default                        : No
Forced                         : No

Text #2
ID                             : 5
Format                         : VobSub
Muxing mode                    : zlib
Codec ID                       : S_VOBSUB
Codec ID/Info                  : Picture based subtitle format used on DVDs
Duration                       : 2 h 4 min
Bit rate                       : 2 776 b/s
Count of elements              : 1339
Stream size                    : 2.47 MiB (0%)
Title                          : [SUB ENG 480P FROM BLU-RAY]
Language                       : Thai
Default                        : No
Forced                         : No

Text #3
ID                             : 6
Format                         : PGS
Muxing mode                    : zlib
Codec ID                       : S_HDMV/PGS
Codec ID/Info                  : Picture based subtitle format used on BDs/HD-DVDs
Duration                       : 2 h 4 min
Bit rate                       : 32.1 kb/s
Count of elements              : 2590
Stream size                    : 28.7 MiB (0%)
Title                          : [SUB THAI PGS FROM BLU-RAY]
Language                       : Thai
Default                        : No
Forced                         : No

Text #4
ID                             : 7
Format                         : PGS
Muxing mode                    : zlib
Codec ID                       : S_HDMV/PGS
Codec ID/Info                  : Picture based subtitle format used on BDs/HD-DVDs
Duration                       : 2 h 4 min
Bit rate                       : 32.1 kb/s
Count of elements              : 2590
Stream size                    : 28.7 MiB (0%)
Title                          : [SUB THAI PGS FROM BLU-RAY] UNDER
Language                       : Thai
Default                        : No
Forced                         : No

Text #5
ID                             : 8
Format                         : UTF-8
Codec ID                       : S_TEXT/UTF8
Codec ID/Info                  : UTF-8 Plain Text
Duration                       : 2 h 4 min
Bit rate                       : 57 b/s
Count of elements              : 1336
Stream size                    : 52.1 KiB (0%)
Title                          : ENG SRT
Language                       : English
Default                        : No
Forced                         : No

Text #6
ID                             : 9
Format                         : UTF-8
Codec ID                       : S_TEXT/UTF8
Codec ID/Info                  : UTF-8 Plain Text
Duration                       : 2 h 4 min
Bit rate                       : 47 b/s
Count of elements              : 1279
Stream size                    : 43.4 KiB (0%)
Title                          : DK SRT
Language                       : Danish
Default                        : Yes
Forced                         : No

Text #7
ID                             : 10
Format                         : UTF-8
Codec ID                       : S_TEXT/UTF8
Codec ID/Info                  : UTF-8 Plain Text
Duration                       : 2 h 5 min
Bit rate                       : 58 b/s
Count of elements              : 1428
Stream size                    : 53.9 KiB (0%)
Title                          : ENG SRT
Language                       : English
Default                        : No
Forced                         : No

Text #8
ID                             : 11
Format                         : UTF-8
Codec ID                       : S_TEXT/UTF8
Codec ID/Info                  : UTF-8 Plain Text
Duration                       : 2 h 5 min
Bit rate                       : 58 b/s
Count of elements              : 1428
Stream size                    : 53.9 KiB (0%)
Title                          : ENG SRT
Language                       : English
Default                        : No
Forced                         : No


[4K.HDR.REMUX].Iron.Man.2008.2160p.BluRay.HEVC.DTS-HD.MA.5.1-BB_Thai5.1.mkv – 57555982681

Facebook Comments

About the author

one4up .com

Add Comment

Click here to post a comment

Featured

Posts

Advertisement