4K UHD

[ฝรั่ง]-[4K HDR REMUX] Iron.Man.2.2010.2160p มหาประลัย คนเกราะเหล็ก 2.BluRay.REMUX.HEVC.DTS-HD.MA.5.1-FGT Thai5.1[พากย์ไทย บรรยายไทย]

 

Iron Man 2 (2010)
ชื่อไทย มหาประลัย คนเกราะเหล็ก 2
นำแสดง Robert Downey Jr., Gwyneth Paltrow, Scarlett Johansson

 

เรื่องย่อ
คนทั่วโลกทราบกันแล้วว่า มหาเศรษฐียอดนักประดิษฐ์อาวุธ โทนี สตาร์ก (โรเบิร์ต ดาวนีย์ จูเนียร์)

คือคนเดียวกับ ไอรอน แมน วีรบุรุษผู้ปกป้องโลก เขาได้รับแรงกดดันจากทางรัฐบาล สื่อมวลชน

และสาธารณชนต่างๆ ให้เปิดเผยเทคโนโลยีในการสร้างไอรอน แมน ให้กับกองทัพ โทนีไม่ต้อง

การเผยความลับที่ซ่อนอยู่เบื้องหลังเกราะเหล็กนี้ เนื่องจากกลัวว่าเทคโนโลยีนี้จะตกไปอยู่ในมือ

ของคนชั่ว มีเพียงสาวคนสนิท เปปเปอร์ พอตส์ (กวินเน็ธ พัลโทรว์) และเพื่อนตายอย่าง โรห์ดี หรือ

เจมส์ โรห์ดส์ (ดอน ชีเดิล) เท่านั้นที่เห็นด้วยกับเขา

 

Iron.Man.2.2010.2160p.BluRay.REMUX.HEVC Thai5.1
DTS-HD.MA.5.1:BluRay 4K
AC3 THAI5.1: BluRay 2K
ซับไทย VobSub :DVD zone 3
ซับไทย  :BluRay 2K
เน็ทบ้าน  private IP

Video
ID                             : 1
Format                         : HEVC
Format/Info                    : High Efficiency Video Coding
Format profile                 : Main 10@L5.1@High
Codec ID                       : V_MPEGH/ISO/HEVC
Duration                       : 2 h 4 min
Bit rate                       : 56.0 Mb/s
Width                          : 3 840 pixels
Height                         : 2 160 pixels
Display aspect ratio           : 16:9
Frame rate mode                : Constant
Frame rate                     : 23.976 (24000/1001) FPS
Original frame rate            : 23.976 (23976/1000) FPS
Standard                       : Component
Color space                    : YUV
Chroma subsampling             : 4:2:0 (Type 2)
Bit depth                      : 10 bits
Bits/(Pixel*Frame)             : 0.282
Stream size                    : 48.9 GiB (93%)
Title                          : BluRay.REMUX.HEVC
Language                       : English
Default                        : Yes
Forced                         : No
Color range                    : Limited
Color primaries                : BT.2020
Transfer characteristics       : PQ
Matrix coefficients            : BT.2020 non-constant
Mastering display color primar : R: x=0.680000 y=0.320000, G: x=0.265000
y=0.690000, B: x=0.150000 y=0.060000, White point: x=0.312700 y=0.329000
Mastering display luminance    : min: 0.0050 cd/m2, max: 1000.0000 cd/m2

Audio #1
ID                             : 2
Format                         : DTS
Format/Info                    : Digital Theater Systems
Format profile                 : MA / Core
Mode                           : 16
Format settings, Endianness    : Big
Codec ID                       : A_DTS
Duration                       : 2 h 4 min
Bit rate mode                  : Variable / Constant
Bit rate                       : 2 959 kb/s / 1 509 kb/s
Channel(s)                     : 6 channels
Channel positions              : Front: L C R, Side: L R, LFE
Sampling rate                  : 48.0 kHz
Frame rate                     : 93.750 FPS (512 SPF)
Bit depth                      : 24 bits
Compression mode               : Lossless / Lossy
Stream size                    : 2.58 GiB (5%)
Title                          : DTS-HD.MA.5.1
Language                       : English
Default                        : No
Forced                         : No

Audio #2
ID                             : 3
Format                         : AC-3
Format/Info                    : Audio Coding 3
Format settings, Endianness    : Big
Codec ID                       : A_AC3
Duration                       : 2 h 4 min
Bit rate mode                  : Constant
Bit rate                       : 640 kb/s
Channel(s)                     : 6 channels
Channel positions              : Front: L C R, Side: L R, LFE
Sampling rate                  : 48.0 kHz
Frame rate                     : 31.250 FPS (1536 SPF)
Bit depth                      : 16 bits
Compression mode               : Lossy
Delay relative to video        : 20 s 700 ms
Stream size                    : 571 MiB (1%)
Title                          : [THAI AC3 FROM BLU-RAY MASTER]
Language                       : Thai
Service kind                   : Complete Main
Default                        : Yes
Forced                         : Yes

Audio #3
ID                             : 4
Format                         : AC-3
Format/Info                    : Audio Coding 3
Format settings, Endianness    : Big
Codec ID                       : A_AC3
Duration                       : 2 h 4 min
Bit rate mode                  : Constant
Bit rate                       : 224 kb/s
Channel(s)                     : 2 channels
Channel positions              : Front: L R
Sampling rate                  : 48.0 kHz
Frame rate                     : 31.250 FPS (1536 SPF)
Bit depth                      : 16 bits
Compression mode               : Lossy
Stream size                    : 200 MiB (0%)
Title                          : comment
Language                       : English
Service kind                   : Complete Main
Default                        : No
Forced                         : No

Text #1
ID                             : 5
Format                         : VobSub
Muxing mode                    : zlib
Codec ID                       : S_VOBSUB
Codec ID/Info                  : Picture based subtitle format used on DVDs
Duration                       : 2 h 4 min
Bit rate                       : 7 578 b/s
Count of elements              : 1425
Stream size                    : 6.75 MiB (0%)
Title                          : [SUB THAI 1080P FROM BLU-RAY]
Language                       : Thai
Default                        : No
Forced                         : No

Text #2
ID                             : 6
Format                         : PGS
Muxing mode                    : zlib
Codec ID                       : S_HDMV/PGS
Codec ID/Info                  : Picture based subtitle format used on BDs/HD-DVDs
Duration                       : 2 h 4 min
Bit rate                       : 68.1 kb/s
Count of elements              : 4301
Stream size                    : 60.6 MiB (0%)
Title                          : movie sub
Language                       : English
Default                        : No
Forced                         : No

Text #3
ID                             : 7
Format                         : PGS
Muxing mode                    : zlib
Codec ID                       : S_HDMV/PGS
Codec ID/Info                  : Picture based subtitle format used on BDs/HD-DVDs
Duration                       : 2 h 4 min
Bit rate                       : 36.4 kb/s
Count of elements              : 2850
Stream size                    : 32.4 MiB (0%)
Title                          : [SUB THAI PGS FROM BLU-RAY]
Language                       : Thai
Default                        : No
Forced                         : No

Text #4
ID                             : 8
Format                         : PGS
Muxing mode                    : zlib
Codec ID                       : S_HDMV/PGS
Codec ID/Info                  : Picture based subtitle format used on BDs/HD-DVDs
Duration                       : 2 h 4 min
Bit rate                       : 36.4 kb/s
Count of elements              : 2850
Stream size                    : 32.4 MiB (0%)
Title                          : [SUB THAI PGS FROM BLU-RAY] UNDER
Language                       : Thai
Default                        : No
Forced                         : No

Text #5
ID                             : 9
Format                         : PGS
Muxing mode                    : zlib
Codec ID                       : S_HDMV/PGS
Codec ID/Info                  : Picture based subtitle format used on BDs/HD-DVDs
Duration                       : 2 h 4 min
Bit rate                       : 26.5 kb/s
Count of elements              : 2850
Stream size                    : 23.6 MiB (0%)
Language                       : Thai
Default                        : Yes
Forced                         : Yes

Text #6
ID                             : 10
Format                         : PGS
Muxing mode                    : zlib
Codec ID                       : S_HDMV/PGS
Codec ID/Info                  : Picture based subtitle format used on BDs/HD-DVDs
Duration                       : 2 h 4 min
Bit rate                       : 41.0 kb/s
Count of elements              : 3064
Stream size                    : 36.4 MiB (0%)
Title                          : comment sub
Language                       : English
Default                        : No
Forced                         : No

Text #7
ID                             : 11
Format                         : UTF-8
Codec ID                       : S_TEXT/UTF8
Codec ID/Info                  : UTF-8 Plain Text
Duration                       : 2 h 4 min
Bit rate                       : 64 b/s
Count of elements              : 1524
Stream size                    : 58.9 KiB (0%)
Title                          : English
Language                       : English
Default                        : No
Forced                         : No

Text #8
ID                             : 12
Format                         : UTF-8
Codec ID                       : S_TEXT/UTF8
Codec ID/Info                  : UTF-8 Plain Text
Duration                       : 2 h 4 min
Bit rate                       : 74 b/s
Count of elements              : 1719
Stream size                    : 67.9 KiB (0%)
Title                          : SRT English  www.opensubtitles.org
Language                       : English
Default                        : No
Forced                         : No

Text #9
ID                             : 13
Format                         : UTF-8
Codec ID                       : S_TEXT/UTF8
Codec ID/Info                  : UTF-8 Plain Text
Duration                       : 2 h 4 min
Bit rate                       : 68 b/s
Count of elements              : 1524
Stream size                    : 62.6 KiB (0%)
Title                          : SRT English  www.opensubtitles.org
Language                       : English
Default                        : No
Forced                         : No

Text #10
ID                             : 14
Format                         : UTF-8
Codec ID                       : S_TEXT/UTF8
Codec ID/Info                  : UTF-8 Plain Text
Duration                       : 2 h 4 min
Bit rate                       : 54 b/s
Count of elements              : 1101
Stream size                    : 49.5 KiB (0%)
Title                          : SRT DK www.opensubtitles.org
Language                       : Danish
Default                        : No
Forced                         : No

Text #11
ID                             : 15
Format                         : UTF-8
Codec ID                       : S_TEXT/UTF8
Codec ID/Info                  : UTF-8 Plain Text
Duration                       : 1 h 56 min
Bit rate                       : 59 b/s
Count of elements              : 1183
Stream size                    : 50.9 KiB (0%)
Title                          : SRT  DK www.opensubtitles.org
Language                       : Danish
Default                        : No
Forced                         : No

Text #12
ID                             : 16
Format                         : UTF-8
Codec ID                       : S_TEXT/UTF8
Codec ID/Info                  : UTF-8 Plain Text
Duration                       : 1 h 57 min
Bit rate                       : 138 b/s
Count of elements              : 1415
Stream size                    : 119 KiB (0%)
Title                          : SRT  www.thaisubtitle.com
Language                       : Thai
Default                        : No
Forced                         : No

Text #13
ID                             : 17
Format                         : UTF-8
Codec ID                       : S_TEXT/UTF8
Codec ID/Info                  : UTF-8 Plain Text
Duration                       : 1 h 52 min
Bit rate                       : 327 b/s
Count of elements              : 1220
Stream size                    : 269 KiB (0%)
Title                          : SRT  www.thaisubtitle.com
Language                       : Thai
Default                        : No
Forced                         : No

Text #14
ID                             : 18
Format                         : UTF-8
Codec ID                       : S_TEXT/UTF8
Codec ID/Info                  : UTF-8 Plain Text
Duration                       : 2 h 4 min
Bit rate                       : 353 b/s
Count of elements              : 1377
Stream size                    : 322 KiB (0%)
Title                          : SRT  www.thaisubtitle.com
Language                       : Thai
Default                        : No
Forced                         : No

 

oIERM.jpg

oPWaE.jpg

Iron.Man.2.2010.2160p.BluRay.REMUX.HEVC.DTS-HD.MA.5.1-FGT_Thai5.1.mkv – 56150876479

Facebook Comments

About the author

one4up .com

Add Comment

Click here to post a comment

Featured

Posts

Advertisement