4K UHD

[ฝรั่ง]-[ 4K HDR].Iron.Man.3.(2013).2160p.REMUX.HEVC.DTS-HD.MA.7.1-FGT Thai5.1 [Master]-[พากย์ไทย บรรยายไทย]

Iron.Man.3 .BluRay.REMUX.HEVC
DTS-HD.MA.7.1:BluRay 4K
AC3 THAI5.1: BluRay 2K
เสียงไทย-ซับไทย :siambit

เน็ทบ้าน

 

Video: HVC1 3840×2160 23.976fps [V: 2160p.BluRay.HEVC (hevc main 10, yuv420p10le, 3840×2160) [default]]
Audio: DTS 48000Hz 8ch 9216kbps [A: DTS-HD.MA.7.1 [eng] (dts-hd ma, 48000 Hz, 7.1, s24)]
Audio: Dolby AC3 48000Hz 6ch 9216kbps [A: Thai 5.1 BluRay 2K [tha] (ac3, 48000 Hz, 6 channels) [default,forced]]t
Audio: Dolby AC3 48000Hz 6ch 640kbps [A: Eng 5.1 BluRay 4K [eng] (ac3, 48000 Hz, 5.1, 640 kb/s)]
Audio: Dolby AC3 48000Hz stereo 224kbps [A: comment [eng] (ac3, 48000 Hz, stereo, 224 kb/s)]
Subtitle [S: Thai BluRay 2K [tha] (pgs) [default,forced]]
Subtitle [S: Eng BluRay 2K [eng] (pgs)]
Subtitle [S: BluRay 2K [tha] (pgs)]
Subtitle: UTF-8 [S: English-SRT [eng] (subrip)]
Subtitle: UTF-8 [S: Eng SRT [eng] (subrip)]
Subtitle: UTF-8 [S: DK SRT [dan] (subrip)]
Subtitle [S: Forced Subtitles (auto)]
Subtitle: UTF-8 [S: No subtitles]

*************************************************
Format : Matroska
Format version : Version 4 / Version 2
File size : 60.8 GiB
Duration : 2 h 11 min
Overall bit rate : 66.4 Mb/s

Video:
ID : 1
Format : HEVC
Format/Info : High Efficiency Video Coding
Format profile : Main 10@L5.1@High
Codec ID : V_MPEGH/ISO/HEVC
Duration : 2 h 11 min
Bit rate : 60.0 Mb/s
Width : 3 840 pixels
Height : 2 160 pixels
Display aspect ratio : 16:9
Frame rate mode : Constant
Frame rate : 23.976 (23976/1000) FPS
Standard : Component
Color space : YUV
Chroma subsampling : 4:2:0 (Type 2)
Bit depth : 10 bits
Bits/(Pixel*Frame) : 0.302
Stream size : 55.0 GiB (90%)
Title : 2160p.BluRay.HEVC
Default : Yes
Forced : No
Color range : Limited
Color primaries : BT.2020
Transfer characteristics : PQ
Matrix coefficients : BT.2020 non-constant
Mastering display color pri : R: x=0.680000 y=0.320000, G: x=0.265000 y=0.690000, B: x=0.150000 y=0.060000, White point: x=0.312700 y=0.329000
Mastering display luminance : min: 0.0050 cd/m2, max: 1000.0000 cd/m2

Audio #1
ID : 2
Format : DTS
Format/Info : Digital Theater Systems
Format profile : MA / Core
Mode : 16
Format settings, Endianness : Big
Codec ID : A_DTS
Duration : 2 h 11 min
Bit rate mode : Variable / Constant
Bit rate : 4 840 kb/s / 1 509 kb/s
Channel(s) : 8 channels / 6 channels
Channel positions : Front: L C R, Side: L R, Back: L R, LFE / Front: L C R, Side: L R, LFE
Sampling rate : 48.0 kHz
Frame rate : 93.750 FPS (512 SPF)
Bit depth : 24 bits
Compression mode : Lossless / Lossy
Stream size : 4.43 GiB (7%)
Title : DTS-HD.MA.7.1
Language : English
Default : No
Forced : No

Audio #2
ID : 3
Format : AC-3
Format/Info : Audio Coding 3
Format settings, Endianness : Big
Codec ID : A_AC3
Duration : 2 h 10 min
Bit rate mode : Constant
Bit rate : 640 kb/s
Channel(s) : 6 channels
Channel positions : Front: L C R, Side: L R, LFE
Sampling rate : 48.0 kHz
Frame rate : 31.250 FPS (1536 SPF)
Bit depth : 16 bits
Compression mode : Lossy
Delay relative to video : 22 s 300 ms
Stream size : 598 MiB (1%)
Title : Thai 5.1 BluRay 2K
Language : Thai
Service kind : Complete Main
Default : Yes
Forced : Yes

Audio #3
ID : 4
Format : AC-3
Format/Info : Audio Coding 3
Format settings, Endianness : Big
Codec ID : A_AC3
Duration : 2 h 11 min
Bit rate mode : Constant
Bit rate : 640 kb/s
Channel(s) : 6 channels
Channel positions : Front: L C R, Side: L R, LFE
Sampling rate : 48.0 kHz
Frame rate : 31.250 FPS (1536 SPF)
Bit depth : 16 bits
Compression mode : Lossy
Stream size : 600 MiB (1%)
Title : Eng 5.1 BluRay 4K
Language : English
Service kind : Complete Main
Default : No
Forced : No

Audio #4
ID : 5
Format : AC-3
Format/Info : Audio Coding 3
Format settings, Endianness : Big
Codec ID : A_AC3
Duration : 2 h 11 min
Bit rate mode : Constant
Bit rate : 224 kb/s
Channel(s) : 2 channels
Channel positions : Front: L R
Sampling rate : 48.0 kHz
Frame rate : 31.250 FPS (1536 SPF)
Bit depth : 16 bits
Compression mode : Lossy
Stream size : 210 MiB (0%)
Title : comment
Language : English
Service kind : Complete Main
Default : No
Forced : No

Text #1
ID : 6
Format : PGS
Muxing mode : zlib
Codec ID : S_HDMV/PGS
Codec ID/Info : Picture based subtitle format used on BDs/HD-DVDs
Duration : 2 h 10 min
Bit rate : 23.0 kb/s
Count of elements : 3476
Stream size : 21.4 MiB (0%)
Title : Thai BluRay 2K
Language : Thai
Default : Yes
Forced : Yes

Text #2
ID : 7
Format : PGS
Muxing mode : zlib
Codec ID : S_HDMV/PGS
Codec ID/Info : Picture based subtitle format used on BDs/HD-DVDs
Duration : 2 h 10 min
Bit rate : 37.7 kb/s
Count of elements : 3480
Stream size : 35.0 MiB (0%)
Title : Eng BluRay 2K
Language : English
Default : No
Forced : No

Text #3
ID : 8
Format : PGS
Muxing mode : zlib
Codec ID : S_HDMV/PGS
Codec ID/Info : Picture based subtitle format used on BDs/HD-DVDs
Duration : 2 h 9 min
Bit rate : 70 b/s
Count of elements : 14
Stream size : 67.2 KiB (0%)
Title : BluRay 2K
Language : Thai
Default : No
Forced : No
**************************************************


Iron.Man.3.2013.2160p.REMUX.HEVC.DTS-HD.MA.7.1-FGT_Thai5.1.mkv – 65276835504

Facebook Comments

About the author

one4up .com

Add Comment

Click here to post a comment

Posts

DVD Master

[ฝรั่ง]-มาใหม่ร้อนๆ!! [* DVD Modified + Menu.*] Kidnap (2017) : ล่าหยุดนรก [*CtHts@SiamBIT*] • [ พากย์ไทย 5.1 + เสียงอังกฤษ 5.1 ] • [ บรรยายไทย + อังกฤษ ] • [DVD5] • [ พากย์ไทย บรรยายไทย มาสเตอร์ ] •• หนังใหม่ประจำสัปดาห์ ••> Release Date : 12/10/2017

HD Blu-Ray 1080p

[• ญี่ปุ่น •]-ใหม่ร้อนๆ! [* เล็กพริกขี้หนู 1080p Super HQ *] Let s Go, JETS! From Small Town Girls to U.S. Champions?! (2017) : เชียร์เกิร์ล เชียร์เธอ [*CtHts@SiamBIT*] • [พากย์ไทย 5.1 + เสียงญี่ปุ่น DTS] • [บรรยายไทย + อังกฤษ] • [เสียงไทย + ซับไทย From MASTER +ซับ PGS คมชัด] *• ไฟล์เล็ก 1080p คุณภาพสูง! •*

Advertisement