4K UHD

[ฝรั่ง]-[ 4K HDR]-Furious7 เร็ว..แรงทะลุนรก 7 (2015).EXTENDED.2160p.BluRay.REMUX.HEVC.DTS-HR.7.1 thai5.1[Master]-[พากย์ไทย บรรยายไทย]

 

Video
ID : 1
Format : HEVC
Format profile : Main 10@L5.1@High
Duration : 2 h 19 min
Bit rate : 42.0 Mb/s
Width : 3 840 pixels
Height : 2 160 pixels
Display aspect ratio : 16:9
Frame rate mode : Constant
Frame rate : 23.976 (24000/1001) FPS
Color space : YUV
Chroma subsampling : 4:2:0 (Type 2)
Bit depth : 10 bits
Bits/(Pixel*Frame) : 0.211
Stream size : 41.0 GiB (90%)
Color range : Limited
Color primaries : BT.2020
Transfer characteristics : SMPTE ST 2084
Matrix coefficients : BT.2020 non-constant

 

Audio #1
ID : 2
Format : DTS
Format/Info : Digital Theater Systems
Format profile : HRA / Core
Mode : 16
Format settings, Endianness : Big
Codec ID : A_DTS
Duration : 2 h 19 min
Bit rate mode : Constant
Bit rate : 3 456 kb/s / 1 509 kb/s
Channel(s) : 8 channels / 6 channels
Sampling rate : 48.0 kHz
Frame rate : 93.750 FPS (512 spf)
Bit depth : 24 bits
Stream size : 3.38 GiB (7%)
Title : DTS-HR.7.
Language : English

 

Audio #2
ID : 3
Format : DTS
Format/Info : Digital Theater Systems
Mode : 16
Format settings, Endianness : Big
Codec ID : A_DTS
Duration : 2 h 19 min
Bit rate mode : Constant
Bit rate : 768 kb/s
Channel(s) : 6 channels
Sampling rate : 48.0 kHz
Frame rate : 93.750 FPS (512 spf)
Bit depth : 24 bits
Stream size : 769 MiB (2%)
Title : Thai DTS
Language : Thai
Default : Yes
Forced : Yes

Audio #3
ID : 4
Format : DTS
Format/Info : Digital Theater Systems
Codec ID : A_DTS
Duration : 2 h 19 min
Bit rate : 255 kb/s
Channel(s) : 2 channels
Channel positions : Front: L R
Title : eng DTS
Language : English

 

Text #1
ID : 5
Format : PGS
Muxing mode : zlib
Codec ID : S_HDMV/PGS
Codec ID/Info : Picture based subtitle

format used on BDs/HD-DVDs
Duration : 2 h 10 min
Bit rate : 33.0 kb/s
Count of elements : 3340
Stream size : 30.9 MiB (0%)
Title : English-PGS
Language : English
Default : Yes
Forced : No

Text #2
ID : 6
Format : PGS
Muxing mode : zlib
Codec ID : S_HDMV/PGS
Codec ID/Info : Picture based subtitle

format used on BDs/HD-DVDs
Duration : 2 h 19 min
Bit rate : 22.8 kb/s
Count of elements : 2951
Stream size : 22.7 MiB (0%)
Language : Thai
Default : No
Forced : No

 

 

Furious.Seven.2015.EXTENDED.2160p.BluRay.REMUX.HEVC.DTS-HR.7.1-FGT thai5.1 ok.mkv – 48762202659

Facebook Comments

Posts

DVD Master

[ฝรั่ง]-มาใหม่ร้อนๆ!! [* DVD Modified + Menu.*] Kidnap (2017) : ล่าหยุดนรก [*CtHts@SiamBIT*] • [ พากย์ไทย 5.1 + เสียงอังกฤษ 5.1 ] • [ บรรยายไทย + อังกฤษ ] • [DVD5] • [ พากย์ไทย บรรยายไทย มาสเตอร์ ] •• หนังใหม่ประจำสัปดาห์ ••> Release Date : 12/10/2017

HD Blu-Ray 1080p

[• ญี่ปุ่น •]-ใหม่ร้อนๆ! [* เล็กพริกขี้หนู 1080p Super HQ *] Let s Go, JETS! From Small Town Girls to U.S. Champions?! (2017) : เชียร์เกิร์ล เชียร์เธอ [*CtHts@SiamBIT*] • [พากย์ไทย 5.1 + เสียงญี่ปุ่น DTS] • [บรรยายไทย + อังกฤษ] • [เสียงไทย + ซับไทย From MASTER +ซับ PGS คมชัด] *• ไฟล์เล็ก 1080p คุณภาพสูง! •*

Advertisement