4K UHD

[ฝรั่ง]-[BluRay Remux 4K HDR] Guardians of the Galaxy Vol.II (2017) : รวมพันธุ์นักสู้พิทักษ์จักรวาล 2 • [4K | HDR] • [Remux|H265/2160p] • [เสียงไทย AC3 5.1 & อังกฤษ TureHD Atmos 7.1] •[ซับไทย & อังกฤษ PGS Master] – ReEncoder by thiphAk0rn

Guardians.of.the.Galaxy.Vol.2.2017.2160p.UltraHD
Bluray.REMUX.HDR.TrueHD.Atmos.7.1.x265

 

ไฟล์นี้เป็นแบบ Remux จาก ISO ไม่ใช่ตัว Encode คือไฟล์ก่อนหน้านี้ | Full Bitrate

 

<<<<<< Guardians of the Galaxy Vol. 2 : รวมพันธุ์นักสู้พิทักษ์จักรวาล 2 >>>>>>>>>

การเดินทางของกลุ่มฮีโร่สุดเพี้ยนในห้วงอวกาศยังคงเดินทางอย่างไม่หยุดหย่อน ปีเตอร์ กิลล์ หรือ สตาร์ลอร์ดยังไม่หยุดข้องใจและยังออกตามหาพ่อของเขา
และเหล่าศัตรูในภาคเก่ากลับกลายมาเป็นทีมเดียวกันในภาคนี้จนได้มาพบกับที่มาและ “ชาติกำเนิด” ที่ไม่ใช่ธรรมดาๆ ของตัวเอง เพราะเขาเป็นลูกครึ่งมนุษย์โลกและมนุษย์ต่างดาว
แถมยังเป็นอะไรที่ยิ่งกว่ามนุษย์ต่างดาวมากๆ

[NAME]:…………………………> Guardians of the Galaxy Vol. 2 (2017) 4K UltraHD HDR
[VIDEO]:………………………..> MKV – X265 Blu-Ray Remux
[AUDIO]:………………………..> ENG : TureHD Atmos 7.1 FullRate & THA : AC3 5.1 BluRay @648Kbps
[RESOLUTION]:…………….> H265 3840 x 2160p
[FRAME RATE]:…………….> 23.976 fps
[SUBTITLES]:………………..> PGS > ENG | Thai
[RUNTIME]:……………………> 02:15:46
[ReEncoder]:……………….> TPK | thiphAk0rn
[SOURCE]:………………………> Blu-ray Disc 4K HDR

 

Format : Matroska
Format version : Version 4 / Version 2
File size : 50.7 GiB
Duration : 2 h 15 min
Overall bit rate mode : Variable
Overall bit rate : 53.5 Mb/s
Movie name : TPK | Guardians.of.the.Galaxy.Vol.2.2017.UHD.HDR.BluRay.2160p.TrueHD.Atmos.7.1.HEVC.REMUX-thiphAk0rn
Writing application : mkvmerge v16.0.0 ( Protest ) 64-bit
Writing library : libebml v1.3.5 + libmatroska v1.4.8
Cover : Yes
Attachments : cover.jpg / cover_land.jpg / small_cover.jpg / small_cover_land.jpg

Video
ID : 1
Format : HEVC
Format/Info : High Efficiency Video Coding
Format profile : Main 10@L5.1@High
Codec ID : V_MPEGH/ISO/HEVC
Duration : 2 h 15 min
Width : 3 840 pixels
Height : 2 160 pixels
Display aspect ratio : 16:9
Frame rate mode : Constant
Frame rate : 23.976 (24000/1001) FPS
Color space : YUV
Chroma subsampling : 4:2:0 (Type 2)
Bit depth : 10 bits
Title : Guardians.of.the.Galaxy.Vol.2.2017.UHD.HDR.BluRay.2160p.TrueHD.Atmos.7.1.HEVC.REMUX-thiphAk0rn
Default : Yes
Forced : No
Color range : Limited
Color primaries : BT.2020
Transfer characteristics : PQ
Matrix coefficients : BT.2020 non-constant
Mastering display color primaries : R: x=0.680000 y=0.320000, G: x=0.265000 y=0.690000, B: x=0.150000 y=0.060000, White point: x=0.312700 y=0.329000
Mastering display luminance : min: 0.0050 cd/m2, max: 1000.0000 cd/m2

Audio #1
ID : 2
Format : TrueHD
Format profile : TrueHD+Atmos / TrueHD
Codec ID : A_TRUEHD
Bit rate mode : Variable
Maximum bit rate : 11.3 Mb/s
Channel(s) : Object Based / 8 channels
Channel positions : Object Based / Front: L C R, Side: L R, Back: L R, LFE
Sampling rate : / 48.0 kHz
Frame rate : 1 200.000 FPS (40 SPF)
Compression mode : Lossless
Delay relative to video : -1 ms
Title : TrueHD Atmos 7.1
Language : English
Default : Yes
Forced : No

Audio #2
ID : 3
Format : AC-3
Format/Info : Audio Coding 3
Format settings, Endianness : Big
Codec ID : A_AC3
Duration : 2 h 15 min
Bit rate mode : Constant
Bit rate : 640 kb/s
Channel(s) : 6 channels
Channel positions : Front: L C R, Side: L R, LFE
Sampling rate : 48.0 kHz
Frame rate : 31.250 FPS (1536 SPF)
Bit depth : 16 bits
Compression mode : Lossy
Delay relative to video : 30 ms
Stream size : 622 MiB (1%)
Title : Thai AC3 5.1 BluRay
Language : Thai
Service kind : Complete Main
Default : No
Forced : No

Audio #3
ID : 4
Format : AC-3
Format/Info : Audio Coding 3
Format settings, Endianness : Big
Codec ID : A_AC3
Duration : 2 h 15 min
Bit rate mode : Constant
Bit rate : 192 kb/s
Channel(s) : 2 channels
Channel positions : Front: L R
Sampling rate : 48.0 kHz
Frame rate : 31.250 FPS (1536 SPF)
Bit depth : 16 bits
Compression mode : Lossy
Delay relative to video : -1 ms
Stream size : 186 MiB (0%)
Title : Commentary by Director James Gunn
Language : English
Service kind : Complete Main
Default : No
Forced : No

Text #1
ID : 5
Format : PGS
Muxing mode : zlib
Codec ID : S_HDMV/PGS
Codec ID/Info : Picture based subtitle format used on BDs/HD-DVDs
Title : English (SDH)
Language : English
Default : No
Forced : No

Text #2
ID : 6
Format : PGS
Muxing mode : zlib
Codec ID : S_HDMV/PGS
Codec ID/Info : Picture based subtitle format used on BDs/HD-DVDs
Title : Thai PGS BluRay
Language : Thai
Default : Yes
Forced : No

Text #3
ID : 7
Format : PGS
Muxing mode : zlib
Codec ID : S_HDMV/PGS
Codec ID/Info : Picture based subtitle format used on BDs/HD-DVDs
Title : English (Commentary)
Language : English
Default : No
Forced : No

Facebook Comments

About the author

one4up .com

Add Comment

Click here to post a comment

Featured

Posts

Mini HD Blu-Ray 1080p

[ฝรั่ง]-ใหม่ร้อนๆ! [* เล็กพริกขี้หนู 1080p HQ *] Shut In (2016) : หลอนเป็น หลอนตาย [*CtHts@SiamBIT*] • [พากย์ไทย 5.1 แท้ + เสียงอังกฤษ DTS] • [บรรยายไทย + อังกฤษ] • [เสียงไทย + ซับไทย From MASTER +ซับ PGS คมชัด] *• ไฟล์เล็ก 1080p คุณภาพสูง! •*

Advertisement