HD Blu-Ray 720p หนังซูม

[ฝรั่ง]-[ใหม่!!ร้อนๆ] • [ภาพชัดมาแล้ว] • Overdrive (2017) : โจรกรรมซ่าส์ ล่าทะลุไมล์ • [1080p] • [* WEB-DL.DD5.1.H264 CpT@CtHts *] • [*CtHts@SiamBIT*] • [พากย์โทยโรง 2.0 AAC/AC-3 + เสียงอังกฤษ DD5.1] • [บรรยายอังกฤษ] • [Modified] • [พากย์ไทยโรง]

ภาพยนตร์สุดมันจากผู้กำกับ อันโตนิโอ เนเกรท
พบกับอภิมหาความมันแรงกับแผนโจรกรรมรถเฟอร์รารี 250 GTO ได้ใน Overdrive!

••• 1080p.WEB-DL.DD5.1.H264_CpT@CtHts •••
พากย์โทยโรง 2.0 AAC/AC-3 + เสียงอังกฤษ DD5.1 + บรรยายอังกฤษ

Overdrive สองพี่น้องหัวขโมย แอนดรูว์ และ การ์เรตต์ (สก็อตต์ อีสต์วูด และเฟรดดี้ ธอร์พ) ได้รับมอบหมายให้ไปขโมยรถยนต์บูกัตติ 1937 ของเจ้าพ่อมาเฟีย จาโคโม โมริแอร์ (ไซมอน อับคาเรียน) แต่เมื่อแผนผิดพลาดและถูกเจ้าพ่อจับได้ พวกเขาจึงได้งานชิ้นใหม่ที่จะทำให้พวกเขารอดพ้นจากถูกมาเฟียคุกคามเอาชีวิต นั่นคือแผนโจรกรรมรถเฟอร์รารี 250 GTO ปี 1962 ของ แม็กซ์ เคลมป์ (เคลเมนส์ ชิค) มาเฟียคู่ปรับของโมริแอร์

Format : Matroska
File size : 3.45 GiB
Duration : 1 h 33 min
Overall bit rate : 5 281 kb/s
Movie name : Overdrive.2017.1080p.WEB-DL.DD5.1.H264_CpT@CtHts

Video
ID : 1
Format : AVC
Format/Info : Advanced Video Codec
Format profile : High@L4
Format settings, CABAC : Yes
Format settings, ReFrames : 5 frames
Codec ID : V_MPEG4/ISO/AVC
Duration : 1 h 33 min
Bit rate : 4 509 kb/s
Width : 1 920 pixels
Height : 802 pixels
Display aspect ratio : 2.40:1
Frame rate mode : Constant
Frame rate : 23.976 (23976/1000) FPS
Color space : YUV
Chroma subsampling : 4:2:0
Bit depth : 8 bits
Scan type : Progressive
Bits/(Pixel*Frame) : 0.122
Stream size : 2.94 GiB (85%)
Title : Overdrive.2017.1080p.WEB-DL.DD5.1.H264_CpT@CtHts
Language : English
Default : Yes
Forced : No
Color range : Limited
Color primaries : BT.709
Transfer characteristics : BT.709
Matrix coefficients : BT.709

Audio #1
ID : 2
Format : AC-3
Format/Info : Audio Coding 3
Mode extension : CM (complete main)
Format settings, Endianness : Big
Codec ID : A_AC3
Duration : 1 h 33 min
Bit rate mode : Constant
Bit rate : 192 kb/s
Channel(s) : 2 channels
Channel positions : Front: L R
Sampling rate : 48.0 kHz
Frame rate : 31.250 FPS (1536 spf)
Bit depth : 16 bits
Compression mode : Lossy
Delay relative to video : -42 ms
Stream size : 128 MiB (4%)
Title : ThaiRong 2.0 AC-3 By ~Mr.Captain~
Language : Thai
Default : Yes
Forced : No

Audio #2
ID : 3
Format : AAC
Format/Info : Advanced Audio Codec
Format profile : LC
Codec ID : A_AAC
Duration : 1 h 33 min
Bit rate : 192 kb/s
Channel(s) : 2 channels
Channel positions : Front: L R
Sampling rate : 48.0 kHz
Frame rate : 46.875 FPS (1024 spf)
Compression mode : Lossy
Delay relative to video : -42 ms
Stream size : 129 MiB (4%)
Title : ThaiRong 2.0 AAC By ~Mr.Captain~
Language : Thai
Default : No
Forced : No

Audio #3
ID : 4
Format : AC-3
Format/Info : Audio Coding 3
Mode extension : CM (complete main)
Format settings, Endianness : Big
Codec ID : A_AC3
Duration : 1 h 33 min
Bit rate mode : Constant
Bit rate : 384 kb/s
Channel(s) : 6 channels
Channel positions : Front: L C R, Side: L R, LFE
Sampling rate : 48.0 kHz
Frame rate : 31.250 FPS (1536 spf)
Bit depth : 16 bits
Compression mode : Lossy
Delay relative to video : -42 ms
Stream size : 257 MiB (7%)
Title : English DD5.1 AC-3
Language : English
Default : No
Forced : No

Text #1
ID : 5
Format : UTF-8
Codec ID : S_TEXT/UTF8
Codec ID/Info : UTF-8 Plain Text
Duration : 1 h 15 min
Bit rate : 0 b/s
Count of elements : 31
Stream size : 524 Bytes (0%)
Title : FORCED
Language : English
Default : Yes
Forced : Yes

Text #2
ID : 6
Format : UTF-8
Codec ID : S_TEXT/UTF8
Codec ID/Info : UTF-8 Plain Text
Duration : 1 h 27 min
Bit rate : 43 b/s
Count of elements : 905
Stream size : 27.6 KiB (0%)
Title : English
Language : English
Default : No
Forced : No

Menu
00:00:00.000 : en:1
00:06:34.000 : en:2
00:10:12.000 : en:3
00:19:20.000 : en:4
00:25:36.000 : en:5
00:31:24.000 : en:6
00:38:23.000 : en:7
00:44:54.000 : en:8
00:48:29.000 : en:9
00:54:28.000 : en:10
01:01:34.000 : en:11
01:10:04.000 : en:12
01:17:27.000 : en:13
01:25:26.000 : en:14
01:27:33.000 : en:15










Overdrive.2017.1080p.WEB-DL.DD5.1.H264_CpT@CtHts.mkv – 3702929650

Facebook Comments

About the author

one4up .com

Add Comment

Click here to post a comment

Featured

Posts

HD Blu-Ray 720p หนังซูม

[ฝรั่ง]-[ใหม่!!ร้อนๆ] • [ภาพชัดมาแล้ว] • Overdrive (2017) : โจรกรรมซ่าส์ ล่าทะลุไมล์ • [1080p] • [* WEB-DL.DD5.1.H264 CpT@CtHts *] • [*CtHts@SiamBIT*] • [พากย์โทยโรง 2.0 AAC/AC-3 + เสียงอังกฤษ DD5.1] • [บรรยายอังกฤษ] • [Modified] • [พากย์ไทยโรง]

HD Blu-Ray 1080p

[ฝรั่ง]-ใหม่ร้อนๆ! +[* พิเศษ ก่อนกำหนดของไทยออก *] Sniper: Ultimate Kill (2017) : [*CtHts@SiamBIT*] • [พากย์ไทย 5.1 + เสียงอังกฤษ DTS] • [บรรยายไทย + อังกฤษ] • [เสียงไทย + ซับไทย From Blu-Ray MASTER +ซับ PGS คมชัด] • [ เล็กพริกขี้หนู 1080p Super HQ ] Or *• ไฟล์เล็ก 1080p คุณภาพสูง!

HD Blu-Ray 1080p

[• รัสเซีย •]-ใหม่ร้อนๆ! +[* กระหึ่มด้วย THAI-DTS *] Attraction (2017) : มหาวิบัติเอเลี่ยนถล่มโลก [*CtHts@SiamBIT*] • [พากย์ไทย DTS + เสียงรัสเซีย DTS] • [บรรยายไทย + อังกฤษ] • [เสียงไทย + ซับไทย From Blu-Ray MASTER +ซับ PGS คมชัด] • [ เล็กพริกขี้หนู 1080p Super HQ ] Or *• ไฟล์เล็ก 1080p คุณภาพสูง! •*

Advertisement