HD Blu-Ray 720p หนังซูม

[ฝรั่ง]-[ใหม่!!ร้อนๆก่อนใคร]•[หนังซูมภาพชัดแจ๋ว] Blade Runner 2049 (2017) เบลด รันเนอร์ 2049 [720]•[*Camrip.x264.SoundThaiRong2.0.Eng2.0*]•[*เสียงไทยโรงชัด 2.0 + อังกฤษ 2.0*]•[หนังซูม]•[พากย์ไทยโรง]

สานต่อไซไฟสุดยิ่งใหญ่ มนุษยธรรมในตัวมนุษย์เทียม

Blade_Runner_2049_logod7cf0043e74ff09c.png

blade_runner_2049_movie_folder_icon_v1_by_zenoasis-dbl717h766c151e18fcd331.png

เบลด รันเนอร์ 2049 อภิมหาภาพยนตร์แอ็คชั่น – ไซไฟ เรื่องราวของมนุษย์เทียม มนุษย์ที่ถูกดัดแปลงพันธุกรรมออกแบบโดย ไทเรลคอร์ปอเรชั่น เพื่อนำไปใช้ในอวกาศถูกใช้เป็นกำลังเสริมให้เป็นทาส หลังจากการก่อกบฏที่รุนแรงหลายครั้ง ความผิดพลาดของมันกลายเป็นสิ่งต้องห้าม และไทเรลคอร์ปจึงล้มละลายไป ในที่สุดมนุษย์เทียมสายพันธุ์ใหม่จึงถูกสร้างขึ้นมา มนุษย์เทียมรุ่นเก่าจึงถูกตามล่าและปลดระวาง และคนที่ตามล่าพวกมันยังคงใช้ชื่อว่า…เบลด รันเนอร์ “เค” นำแสดงโดย ไรอัน กอสลิ่ง ตำรวจ แอลเอพีดี ถูกไล่ล่าจากกลุ่มมนุษย์เทียมรุ่นใหม่ เขาต้องออกตามหา “ริค เด็คการ์ด” นำแสดงโดย แฮร์ริสัน ฟอร์ด ตำรวจแอลเอพีดี เบลด รันเนอร์ ที่หายสาบสูญตัวไปกว่า 30 ปี เพราะเขาคนนี้คือคนที่กุมความลับที่จะนำไปส่จุดจบของมวลมนุษย์

General
Unique ID : 206974066778052988982656569916284369454 (0x9BB5C15AD01D206291C32655C56E7A2E)
Complete name : D:DownloadBlade Runner 2049.2017.Camrip.SoundThaiRong2.0.English2.0.mkv
Format : Matroska
Format version : Version 4 / Version 2
File size : 5.49 GiB
Duration : 2 h 15 min
Overall bit rate mode : Variable
Overall bit rate : 5 811 kb/s
Encoded date : UTC 2017-10-08 15:15:30
Writing application : mkvmerge v9.6.0 ( Slave To Your Mind ) 32bit
Writing library : libebml v1.3.4 + libmatroska v1.4.5

Video
ID : 3
Format : AVC
Format/Info : Advanced Video Codec
Format profile : High@L3.2
Format settings, CABAC : Yes
Format settings, RefFrames : 5 frames
Codec ID : V_MPEG4/ISO/AVC
Duration : 2 h 15 min
Bit rate mode : Variable
Bit rate : 5 500 kb/s
Maximum bit rate : 22.0 Mb/s
Width : 1 280 pixels
Height : 720 pixels
Display aspect ratio : 16:9
Frame rate mode : Constant
Frame rate : 29.970 (30000/1001) FPS
Standard : Component
Color space : YUV
Chroma subsampling : 4:2:0
Bit depth : 8 bits
Scan type : Progressive
Bits/(Pixel*Frame) : 0.199
Stream size : 5.19 GiB (94%)
Writing library : x264 core 148
Encoding settings : cabac=1 / ref=5 / deblock=1:0:0 / analyse=0x3:0x113 / me=hex / subme=7 / psy=1 / psy_rd=1.00:0.00 / mixed_ref=1 / me_range=16 / chroma_me=1 / trellis=1 / 8x8dct=1 / cqm=1 / deadzone=21,11 / fast_pskip=1 / chroma_qp_offset=-2 / threads=12 / lookahead_threads=2 / sliced_threads=0 / slices=1 / nr=0 / decimate=1 / interlaced=0 / minigop=0 / stitchable=1 / constrained_intra=0 / bframes=3 / b_pyramid=0 / b_adapt=1 / b_bias=0 / direct=1 / weightb=1 / open_gop=1 / weightp=2 / keyint=250 / keyint_min=25 / scenecut=40 / intra_refresh=0 / rc_lookahead=40 / rc=abr / mbtree=1 / bitrate=5500 / ratetol=1.0 / qcomp=0.60 / qpmin=3 / qpmax=69 / qpstep=4 / vbv_maxrate=22000 / vbv_bufsize=22000 / nal_hrd=vbr / filler=0 / ip_ratio=1.40 / aq=1:1.00
Default : Yes
Forced : No
Color range : Limited
Color primaries : BT.709
Transfer characteristics : BT.709
Matrix coefficients : BT.709

Audio #1
ID : 1
Format : AAC
Format/Info : Advanced Audio Codec
Format profile : LC
Codec ID : A_AAC
Duration : 2 h 15 min
Bit rate : 125 kb/s
Channel(s) : 2 channels
Channel positions : Front: L R
Sampling rate : 48.0 kHz
Frame rate : 46.875 FPS (1024 SPF)
Compression mode : Lossy
Stream size : 121 MiB (2%)
Default : No
Forced : No

Audio #2
ID : 2
Format : AC-3
Format/Info : Audio Coding 3
Format settings, Endianness : Big
Codec ID : A_AC3
Duration : 2 h 15 min
Bit rate mode : Constant
Bit rate : 192 kb/s
Channel(s) : 2 channels
Channel positions : Front: L R
Sampling rate : 48.0 kHz
Frame rate : 31.250 FPS (1536 SPF)
Bit depth : 16 bits
Compression mode : Lossy
Stream size : 186 MiB (3%)
Title : Sound ThaiRong 2.0
Language : Thai
Service kind : Complete Main
Default : Yes
Forced : No

 

Blade-Runner-2049.2017.CAM.X264-LickMe.mkv_snapshot_00.14.19_2017.10.08_20.18.25627ae7a1742d4c7c.jpg
Blade-Runner-2049.2017.CAM.X264-LickMe.mkv_snapshot_00.17.46_2017.10.08_20.19.05e89eb72645dbd022.jpg
Blade-Runner-2049.2017.CAM.X264-LickMe.mkv_snapshot_00.25.20_2017.10.08_20.20.0867725d799149eef6.jpg
Blade-Runner-2049.2017.CAM.X264-LickMe.mkv_snapshot_01.36.17_2017.10.08_20.21.00cc8b322a5bdcdc93.jpg
Blade-Runner-2049.2017.CAM.X264-LickMe.mkv_snapshot_00.42.03_2017.10.08_20.20.20e9c50f9d73bf8158.jpg
Blade-Runner-2049.2017.CAM.X264-LickMe.mkv_snapshot_01.00.31_2017.10.08_20.20.53b2bee057869d0a2a.jpg
Blade-Runner-2049.2017.CAM.X264-LickMe.mkv_snapshot_01.40.34_2017.10.08_20.21.05cd4754ccd48fe00a.jpg
Blade-Runner-2049.2017.CAM.X264-LickMe.mkv_snapshot_01.59.36_2017.10.08_20.21.413170298573896a3c.jpg
Blade Runner 2049.2017.Camrip.SoundThaiRong2.0.English2.0.mkv – 5893366201

Facebook Comments

About the author

one4up .com

Add Comment

Click here to post a comment

Featured

Posts

HD Blu-Ray 720p หนังซูม

[ฝรั่ง]-[ใหม่!!ร้อนๆ] • [ภาพชัดมาแล้ว] • Overdrive (2017) : โจรกรรมซ่าส์ ล่าทะลุไมล์ • [1080p] • [* WEB-DL.DD5.1.H264 CpT@CtHts *] • [*CtHts@SiamBIT*] • [พากย์โทยโรง 2.0 AAC/AC-3 + เสียงอังกฤษ DD5.1] • [บรรยายอังกฤษ] • [Modified] • [พากย์ไทยโรง]

HD Blu-Ray 1080p

[ฝรั่ง]-ใหม่ร้อนๆ! +[* พิเศษ ก่อนกำหนดของไทยออก *] Sniper: Ultimate Kill (2017) : [*CtHts@SiamBIT*] • [พากย์ไทย 5.1 + เสียงอังกฤษ DTS] • [บรรยายไทย + อังกฤษ] • [เสียงไทย + ซับไทย From Blu-Ray MASTER +ซับ PGS คมชัด] • [ เล็กพริกขี้หนู 1080p Super HQ ] Or *• ไฟล์เล็ก 1080p คุณภาพสูง!

HD Blu-Ray 1080p

[• รัสเซีย •]-ใหม่ร้อนๆ! +[* กระหึ่มด้วย THAI-DTS *] Attraction (2017) : มหาวิบัติเอเลี่ยนถล่มโลก [*CtHts@SiamBIT*] • [พากย์ไทย DTS + เสียงรัสเซีย DTS] • [บรรยายไทย + อังกฤษ] • [เสียงไทย + ซับไทย From Blu-Ray MASTER +ซับ PGS คมชัด] • [ เล็กพริกขี้หนู 1080p Super HQ ] Or *• ไฟล์เล็ก 1080p คุณภาพสูง! •*

Advertisement