หนังเก่าน่าสะสม

[ฝรั่ง]-[ใหม่!!ภาพชัด] Annabelle: Creation (2017) : แอนนาเบลล์ กำเนิดตุ๊กตาผี • [1080p] [* KORSUB.HDRip.x264.ThaiRong2.0.SubThai CpT@CtHts *] [พากย์ไทยโรง 2.0 + เสียงอังกฤษ 2.0] • [บรรยายไทย + อังกฤษ + เกาหลีฝัง] [Modified] [พากย์ไทยโรง]

ภาพยนตร์ ผลงานจากนิวไลน์ ซีเนม่า ร่วมกับ เดวิด เอฟ. แซนด์เบิร์ก (“Lights Out”)
ตุ๊กตาผี ANNABELLE อีกครั้ง ด้วยการเปิดตำนานต้นกำเนิดของตุ๊กตาสุดสะพรึง!
&
หนังจบอย่างพึ่งลุกออกจากหน้าจอยังมีต่อหลังเอ็นเครต ิด!

••• 1080p.KORSUB.HDRip.x264.ThaiRong2.0.SubThai_CpT@Ct Hts •••
พากย์ไทยโรง 2.0 + เสียงอังกฤษ 2.0 / บรรยายไทย + อังกฤษ + เกาหลีฝัง

Annabelle: Creation ภาพยนตร์เรื่อง “Annabelle: Creation” ผลงานจากนิวไลน์ ซีเนม่า ร่วมกับ เดวิด เอฟ. แซนด์เบิร์ก (“Lights Out”) ที่มากำกับภาพยนตร์ภาคต่อที่ประสบความสำเร็จอย่างยิ่ งใหญ่เมื่อปี 2014 เรื่อง “Annabelle” ซึ่งสร้างความหลอนให้บ็อกซ์ออฟฟิศทั่วโลกในช่วงที่มี การฉายไปเกือบ 257 ล้านเหรียญ ภาพยนตร์ภาคใหม่จะอำนวยการสร้างโดยปีเตอร์ ซาฟราน และ เจมส์ วาน ที่ร่วมงานกันในภาพยนตร์เรื่อง “The Conjuring” อีกครั้ง

ในภาพยนตร์เรื่อง “Annabelle: Creation” เป็นเรื่องราวหลายปีหลังจากลูกสาวตัวน้อยของพวกเขาเส ียชีวิตลงอย่างน่าเศร้า ผู้ผลิตตุ๊กตาและภรรยาของเขาได้เชิญแม่ชีกับเด็กผู้ห ญิงอีกหลายคนจากสถานรับเลี้ยงเด็กกำพร้ามาที่บ้านพวก เขา หลังจากนั้นจึงตกเป็นเป้าหมายของ แอนนาเบล ตุ๊กตาผีสิงที่ผู้ผลิตตุ๊กตาเป็นคนสร้างขึ้นมา

แซนด์เบิร์กกำกับฯ จากบทภาพยนตร์ของแกรี่ ดาวเบอร์แมน ผู้เคยเขียนบทให้เรื่อง “Annabelle” ภาพยนตร์นำแสดงโดยสเตฟานี่ ซิกแมน (“Spectre”), ทาลิธา เบทแมน (“The 5th Wave”), ลูลู วิลสัน (ภาพยนตร์ที่กำลังจะเข้าฉาย “Ouija 2,” “Deliver Us from Evil”), ฟิลลิปป้า โคลท์ฮาร์ด (“After the Dark”), เกรซ ฟัลตอน (“Badland”), ลู ลู ซาฟราน (“The Choice”), ซามารา ลี (“Foxcatcher,” “The Last Witch Hunter”), เทย์เลอร์ บัค ที่มีผลงานภาพยนตร์เป็นเรื่องแรก ร่วมด้วยแอนโธนี่ ลาพาเกลีย (ภาพยนตร์ทางทีวี “Without a Trace”) และมิแรนด้า ออตโต (ภาพยนตร์ทาง Showtime “Homeland,” ภาพยนตร์ไตรภาค “The Lord of the Rings” )

Format : Matroska
File size : 3.76 GiB
Duration : 1 h 49 min
Overall bit rate : 4 921 kb/s
Movie name : Annabelle.Creation.2017.1080p.KORSUB.HDRip.x264.Th aiRong2.0.SubThai_CpT@CtHts

Video
ID : 1
Format : AVC
Format/Info : Advanced Video Codec
Format profile : High@L4.1
Format settings, CABAC : Yes
Format settings, RefFrames : 4 frames
Codec ID : V_MPEG4/ISO/AVC
Duration : 1 h 49 min
Bit rate : 4 500 kb/s
Width : 1 920 pixels
Height : 806 pixels
Display aspect ratio : 2.40:1
Frame rate mode : Constant
Frame rate : 23.976 (24000/1001) FPS
Color space : YUV
Chroma subsampling : 4:2:0
Bit depth : 8 bits
Scan type : Progressive
Bits/(Pixel*Frame) : 0.121
Stream size : 3.41 GiB (91%)
Writing library : x264 core 152 r2851M ba24899
Encoding settings : cabac=1 / ref=4 / deblock=1:0:0 / analyse=0x3:0x113 / me=hex / subme=8 / psy=1 / psy_rd=1.00:0.00 / mixed_ref=1 / me_range=16 / chroma_me=1 / trellis=2 / 8x8dct=1 / cqm=0 / deadzone=21,11 / fast_pskip=1 / chroma_qp_offset=-2 / threads=40 / lookahead_threads=6 / sliced_threads=0 / nr=0 / decimate=1 / interlaced=0 / bluray_compat=0 / constrained_intra=0 / bframes=3 / b_pyramid=2 / b_adapt=1 / b_bias=0 / direct=3 / weightb=1 / open_gop=0 / weightp=2 / keyint=250 / keyint_min=23 / scenecut=40 / intra_refresh=0 / rc_lookahead=50 / rc=abr / mbtree=1 / bitrate=4500 / ratetol=1.0 / qcomp=0.60 / qpmin=0 / qpmax=69 / qpstep=4 / ip_ratio=1.40 / aq=1:1.00
Default : Yes
Forced : No

Audio #1
ID : 2
Format : AC-3
Format/Info : Audio Coding 3
Format settings, Endianness : Big
Codec ID : A_AC3
Duration : 1 h 49 min
Bit rate mode : Constant
Bit rate : 192 kb/s
Channel(s) : 2 channels
Channel positions : Front: L R
Sampling rate : 48.0 kHz
Frame rate : 31.250 FPS (1536 SPF)
Bit depth : 16 bits
Compression mode : Lossy
Delay relative to video : -42 ms
Stream size : 150 MiB (4%)
Title : AC-3 ThaiRong 2.0 By ~Mr.Captain~
Language : Thai
Service kind : Complete Main
Default : Yes
Forced : No

Audio #2
ID : 3
Format : AAC
Format/Info : Advanced Audio Codec
Format profile : LC
Codec ID : A_AAC
Duration : 1 h 47 min
Bit rate : 224 kb/s
Channel(s) : 2 channels
Channel positions : Front: L R
Sampling rate : 48.0 kHz
Frame rate : 46.875 FPS (1024 SPF)
Compression mode : Lossy
Delay relative to video : -42 ms
Stream size : 172 MiB (4%)
Title : AAC English 2.0
Default : No
Forced : No

Text #1
ID : 4
Format : PGS
Codec ID : S_HDMV/PGS
Codec ID/Info : Picture based subtitle format used on BDs/HD-DVDs
Duration : 1 h 43 min
Bit rate : 11.7 kb/s
Count of elements : 1456
Stream size : 8.70 MiB (0%)
Title : Thai PGS
Language : Thai
Default : Yes
Forced : No

Text #2
ID : 5
Format : PGS
Codec ID : S_HDMV/PGS
Codec ID/Info : Picture based subtitle format used on BDs/HD-DVDs
Duration : 1 h 43 min
Bit rate : 11.7 kb/s
Count of elements : 1456
Stream size : 8.70 MiB (0%)
Title : Thai Yellow PGS
Language : Thai
Default : No
Forced : No

Text #3
ID : 6
Format : PGS
Codec ID : S_HDMV/PGS
Codec ID/Info : Picture based subtitle format used on BDs/HD-DVDs
Duration : 1 h 43 min
Bit rate : 11.6 kb/s
Count of elements : 1456
Stream size : 8.60 MiB (0%)
Title : Thai DilleniaUPC PGS
Language : Thai
Default : No
Forced : No

Text #4
ID : 7
Format : VobSub
Codec ID : S_VOBSUB
Codec ID/Info : Picture based subtitle format used on DVDs
Duration : 1 h 43 min
Bit rate : 3 888 b/s
Count of elements : 711
Stream size : 2.88 MiB (0%)
Title : Thai 1080p
Language : Thai
Default : No
Forced : No

Text #5
ID : 8
Format : VobSub
Codec ID : S_VOBSUB
Codec ID/Info : Picture based subtitle format used on DVDs
Duration : 1 h 43 min
Bit rate : 4 099 b/s
Count of elements : 711
Stream size : 3.04 MiB (0%)
Title : Thai Yellow 1080p
Language : Thai
Default : No
Forced : No

Text #6
ID : 9
Format : VobSub
Codec ID : S_VOBSUB
Codec ID/Info : Picture based subtitle format used on DVDs
Duration : 1 h 43 min
Bit rate : 2 169 b/s
Count of elements : 711
Stream size : 1.61 MiB (0%)
Title : Thai 720p
Language : Thai
Default : No
Forced : No

Text #7
ID : 10
Format : VobSub
Codec ID : S_VOBSUB
Codec ID/Info : Picture based subtitle format used on DVDs
Duration : 1 h 43 min
Bit rate : 1 211 b/s
Count of elements : 711
Stream size : 919 KiB (0%)
Title : Thai 420p
Language : Thai
Default : No
Forced : No

Text #8
ID : 11
Format : UTF-8
Codec ID : S_TEXT/UTF8
Codec ID/Info : UTF-8 Plain Text
Duration : 1 h 43 min
Bit rate : 23 b/s
Count of elements : 726
Stream size : 17.8 KiB (0%)
Title : English
Language : English
Default : No
Forced : No








Annabelle.Creation.2017.1080p.KORSUB.HDRip.x264.ThaiRong2.0.SubThai_CpT@CtHts.mkv – 4040585424

Facebook Comments

About the author

one4up .com

Add Comment

Click here to post a comment

Featured

Posts

หนังเก่าน่าสะสม

[ฝรั่ง]-[ใหม่!!ภาพชัด] Annabelle: Creation (2017) : แอนนาเบลล์ กำเนิดตุ๊กตาผี • [1080p] [* KORSUB.HDRip.x264.ThaiRong2.0.SubThai CpT@CtHts *] [พากย์ไทยโรง 2.0 + เสียงอังกฤษ 2.0] • [บรรยายไทย + อังกฤษ + เกาหลีฝัง] [Modified] [พากย์ไทยโรง]

HD Blu-Ray 1080p Mini HD Blu-Ray 1080p

[• เกาหลี •]-ใหม่ร้อนๆ! [* เล็กพริกขี้หนู 1080p Super HQ *] Fabricated City (2017) : คนระห่ำพันธุ์เกมเมอร์ [*CtHts@SiamBIT*] • [พากย์ไทย 5.1 + เสียงเกาหลี DTS] • [บรรยายไทย + อังกฤษ] • [เสียงไทย + ซับไทย From MASTER +ซับ PGS คมชัด] *• ไฟล์เล็ก 1080p คุณภาพสูง! •*

Advertisement