HD Blu-Ray 720p

[ฝรั่ง] [Mini-HD]-The Rover (2014) ดุกระแทกเดือด-.AC-3.720p. [Modified]-[พากย์ไทย-อังกฤษ]-[ซับไทย-อังกฤษ]

 

The Rover พูดถึงโลกอนาคต โลกที่เศรษฐกิจพังทลาย ผู้คนไม่อยู่กันเป็นครอบครัวอีกต่อไป พี่ยอมฆ่าน้อง ชาย-หญิง ใช้ชีวิตเพื่อให้ตัวเองรอด หักหลังได้ทุกคน สิ่งเดียวที่ทำให้พวกเขารู้สึกปลอดภัย ก็คือ การทำทุกอย่างเพื่อเป็นเจ้าของอาวุธสงคราม เอริค (กาย เพียร์ซ) ออกท่องโลกพร้อมรถคู่ใจ เขาไม่มีเพื่อน ไม่มีศัตรู และ ไม่มีอดีต เอริค ไม่สุงสิงกับผู้คน และ ไม่นิยมพูดกับใครเกิน 3 คำ

วันหนึ่งเขาแวะพักระหว่างทางในร้านอาหาร และอยู่ๆ ร้านก็ถูกปล้น โจรกลุ่มนั้นขโมยรถ ของเอริคไป และเมื่อรถถูกขโมย เอริคก็ระเบิดความคลั่ง ตามไปยิงทุกอย่างที่ขวางหน้า ระหว่างทาง เขาพบเรย์ (โรเบิร์ต แพททินสัน) หนึ่งในกลุ่มโจรที่ได้รับบาดเจ็บและถูกเพื่อในกลุ่มทิ้งไว้ให้ตายข้างทาง เอริค ช่วยชีวิตเรย์ไว้ พวกเขาตัดสินใจร่วมมือกัน เอริค และ เรย์ ทำข้อตกลงกันที่จะล่าหมายหัว โจรกลุ่มนั้นแบบพลิกแผ่นดิน โดยมีเงื่อนไขว่า เรย์ จะไม่แตะต้องรถของ เอริค และ เอริค จะยกชีวิตของหัวหน้าแก๊งค์โจรให้แก่เรย์ หนังกำกับการแสดงโดย เดวิด มิคอด เคยชิงออสการ์จาก Animal Kingdom

กลายเป็นภาพยนตร์ที่ถูกจับตามองมากที่สุดนาทีนี้ของ โรเบิร์ต แพททินสัน หลังจากที่เข้าฉายในโปรแกรม มิดไนท์ สกรีนนิ่ง และจัดรอบปฐมทัศน์โลกขึ้นในเทศกาลภาพยนตร์เมืองคานส์ ปี 2014 ที่ผ่านมา The Rover ถือการพลิกโฉมครั้งยิ่งใหญ่ของนักแสดงหนุ่มหล่อขั้นเทพขวัญใจสาวๆทั่วโลกอย่างโรเบิร์ต แพททินสันจาก The Twilight Saga ที่จะขอท้าทายตัวเองด้วยการรับบทสุดเข้มข้นและโชว์ฟอร์มบู๊เดือดแบบไม่ห่วงหล่อ เพื่อประชันบทบาทกับนักแสดงหล่อเข้มรุ่นพี่อย่าง กาย เพียร์ซ โดยในรอบปฐมทัศน์โลกที่จัดขึ้น การแสดงของ ทั้ง โรเบิร์ต แพททินสัน และ กาย เพียร์ซ ก็ได้เรียกเสียงฮือฮา และลุกขึ้นปรบมืออย่างยาวนาน หลังชมภาพยนตร์จบ บ้านเรารอชมกัน !!

Video
ID : 1
Format : AVC
Format/Info : Advanced Video Codec
Format profile : High@L3.1
Format settings, CABAC : Yes
Format settings, ReFrames : 4 frames
Codec ID : V_MPEG4/ISO/AVC
Duration : 1 h 42 min
Bit rate : 1 333 kb/s
Width : 1 280 pixels
Height : 528 pixels
Display aspect ratio : 2.40:1
Frame rate mode : Constant
Frame rate : 23.810 FPS
Color space : YUV
Chroma subsampling : 4:2:0
Bit depth : 8 bits
Scan type : Progressive
Bits/(Pixel*Frame) : 0.083
Stream size : 981 MiB (59%)
Title : {MINI}The.Rover.2014.720p.BrRip.AC3.x264_by NongZEZA@CtHts
Writing library : x264 core 130 r2273 b3065e6
Encoding settings : cabac=1 / ref=3 / deblock=1:0:0 / analyse=0x3:0x113 / me=umh / subme=9 / psy=1 / psy_rd=1.00:0.00 / mixed_ref=1 / me_range=16 / chroma_me=1 / trellis=1 / 8x8dct=1 / cqm=0 / deadzone=21,11 / fast_pskip=1 / chroma_qp_offset=-2 / threads=12 / lookahead_threads=1 / sliced_threads=0 / nr=0 / decimate=1 / interlaced=0 / bluray_compat=0 / constrained_intra=0 / bframes=3 / b_pyramid=2 / b_adapt=1 / b_bias=0 / direct=1 / weightb=1 / open_gop=0 / weightp=2 / keyint=240 / keyint_min=24 / scenecut=40 / intra_refresh=0 / rc_lookahead=40 / rc=2pass / mbtree=1 / bitrate=1333 / ratetol=1.0 / qcomp=0.60 / qpmin=0 / qpmax=69 / qpstep=4 / cplxblur=20.0 / qblur=0.5 / ip_ratio=1.40 / aq=1:1.00
Language : English
Default : Yes
Forced : No
Color range : Limited
Color primaries : BT.709
Transfer characteristics : BT.709
Matrix coefficients : BT.709

Audio #1
ID : 2
Format : AC-3
Format/Info : Audio Coding 3
Mode extension : CM (complete main)
Format settings, Endianness : Big
Codec ID : A_AC3
Duration : 1 h 42 min
Bit rate mode : Constant
Bit rate : 448 kb/s
Channel(s) : 6 channels
Channel positions : Front: L C R, Side: L R, LFE
Sampling rate : 48.0 kHz
Frame rate : 31.250 FPS (1536 spf)
Compression mode : Lossy
Stream size : 330 MiB (20%)
Title : Thai DVD Master
Language : Thai
Default : Yes
Forced : Yes

Audio #2
ID : 3
Format : AC-3
Format/Info : Audio Coding 3
Mode extension : CM (complete main)
Format settings, Endianness : Big
Codec ID : A_AC3
Duration : 1 h 42 min
Bit rate mode : Constant
Bit rate : 448 kb/s
Channel(s) : 6 channels
Channel positions : Front: L C R, Side: L R, LFE
Sampling rate : 48.0 kHz
Frame rate : 31.250 FPS (1536 spf)
Compression mode : Lossy
Stream size : 330 MiB (20%)
Title : English AC3 5.1
Language : English
Default : No
Forced : No

Text #1
ID : 4
Format : VobSub
Codec ID : S_VOBSUB
Codec ID/Info : Picture based subtitle format used on DVDs
Title : Thai 480p From DVD Master
Language : Thai
Default : No
Forced : No

Text #2
ID : 5
Format : VobSub
Codec ID : S_VOBSUB
Codec ID/Info : Picture based subtitle format used on DVDs
Title : Thai 720p
Language : Thai
Default : No
Forced : No

Text #3
ID : 6
Format : VobSub
Codec ID : S_VOBSUB
Codec ID/Info : Picture based subtitle format used on DVDs
Title : Thai 1080p
Language : Thai
Default : Yes
Forced : Yes

Text #4
ID : 7
Format : VobSub
Codec ID : S_VOBSUB
Codec ID/Info : Picture based subtitle format used on DVDs
Title : Thai 1080p Yellow
Language : Thai
Default : No
Forced : No

Text #5
ID : 8
Format : VobSub
Codec ID : S_VOBSUB
Codec ID/Info : Picture based subtitle format used on DVDs
Title : Thai 1080p Out
Language : Thai
Default : No
Forced : No

Text #6
ID : 9
Format : VobSub
Codec ID : S_VOBSUB
Codec ID/Info : Picture based subtitle format used on DVDs
Title : Thai 1080p BIG
Language : Thai
Default : No
Forced : No

Text #7
ID : 10
Format : VobSub
Codec ID : S_VOBSUB
Codec ID/Info : Picture based subtitle format used on DVDs
Title : Thai 1080p Out [BIG]
Language : Thai
Default : No
Forced : No

Text #8
ID : 11
Format : PGS
Codec ID : S_HDMV/PGS
Codec ID/Info : Picture based subtitle format used on BDs/HD-DVDs
Title : Thai PGS
Language : Thai
Default : No
Forced : No

Text #9
ID : 12
Format : PGS
Codec ID : S_HDMV/PGS
Codec ID/Info : Picture based subtitle format used on BDs/HD-DVDs
Title : Thai PGS Yellow
Language : Thai
Default : No
Forced : No

Text #10
ID : 13
Format : VobSub
Codec ID : S_VOBSUB
Codec ID/Info : Picture based subtitle format used on DVDs
Title : English
Language : English
Default : No
Forced : No

{MINI}The.Rover.2014.720p.BrRip.AC3.x264_by NongZEZA@CtHts.mkv – 1755067806

 

Facebook Comments

About the author

one4up .com

Add Comment

Click here to post a comment

Featured

Posts

Advertisement