HD Blu-Ray 720p หนังซูม หนังเกาหลี

[เกาหลี]-[ใหม่!] [ภาพชัด] The Battleship Island (2017) : เดอะ แบทเทิลชิป ไอส์แลนด์ [720p] [* HDRip.H264.ThaiRong.2.0 CpT@CtHts *] [พากย์ไทยโรง 2.0 + เสียงเกาหลี 2.0] [บรรยายเกาหลีฝัง + อังกฤษ] [Modified] [พากย์ไทยโรง]

ภาพยนตร์แอ็คชั่นฟอร์มยักษ์แห่งปีจากประเทศเกาหลี
ชาวเกาหลีกว่า 400 ชีวิต ถูกส่งไปใช้แรงงานใต้เหมืองถ่านหินบนเกาะเรือรบ แต่ด้วยสภาพความเป็นอยู่ที่เลวร้ายเกินกว่ามนุษย์จะม ีชีวิตรอด!
••• 720p.HDRip.H264.ThaiRong.2.0_CpT@CtHts •••
พากย์ไทยโรง 2.0 + เสียงเกาหลี 2.0 + บรรยายเกาหลีฝัง / อังกฤษ

Battleship Island เกิดขึ้นในสมัยที่เกาหลีตกเป็นอาณานิคมของญี่ปุ่น โดยชาวเกาหลีกว่า 400 ชีวิต ถูกส่งไปใช้แรงงานหนักในเหมืองถ่านหินบนเกาะเรือรบ (Battleship Island) หรือที่รู้จักในนามเกาะฮาชิมะ แต่ด้วยสภาพความเป็นอยู่ที่เลวร้ายเกินบรรยาย พวกเขาจึงร่วมกันวางแผนหลบหนีออกมา

 

Format : Matroska
File size : 3.61 GiB
Duration : 2 h 12 min
Overall bit rate : 3 905 kb/s
Movie name : The.Battleship.Island.2017.720p.HDRip.H264.ThaiRon g.2.0_CpT@CtHts

Video
ID : 1
Format : AVC
Format/Info : Advanced Video Codec
Format profile : Main@L3.2
Format settings, CABAC : Yes
Format settings, RefFrames : 3 frames
Format settings, GOP : M=4, N=23
Codec ID : V_MPEG4/ISO/AVC
Duration : 2 h 12 min
Bit rate mode : Constant
Bit rate : 3 500 kb/s
Width : 1 280 pixels
Height : 720 pixels
Display aspect ratio : 16:9
Frame rate mode : Constant
Frame rate : 23.976 (24000/1001) FPS
Standard : NTSC
Color space : YUV
Chroma subsampling : 4:2:0
Bit depth : 8 bits
Scan type : Progressive
Bits/(Pixel*Frame) : 0.158
Stream size : 3.21 GiB (89%)
Title : The.Battleship.Island.2017.720p.HDRip.H264.ThaiRon g.2.0_CpT@CtHts
Language : English
Default : Yes
Forced : No
Color range : Limited

Audio #1
ID : 2
Format : AC-3
Format/Info : Audio Coding 3
Format settings, Endianness : Big
Codec ID : A_AC3
Duration : 2 h 12 min
Bit rate mode : Constant
Bit rate : 192 kb/s
Channel(s) : 2 channels
Channel positions : Front: L R
Sampling rate : 48.0 kHz
Frame rate : 31.250 FPS (1536 SPF)
Bit depth : 16 bits
Compression mode : Lossy
Stream size : 182 MiB (5%)
Title : ThaIRong 2.0 AC-3
Language : Thai
Service kind : Complete Main
Default : Yes
Forced : No

Audio #2
ID : 3
Format : AAC
Format/Info : Advanced Audio Codec
Format profile : LC
Codec ID : A_AAC
Duration : 2 h 12 min
Bit rate : 192 kb/s
Channel(s) : 2 channels
Channel positions : Front: L R
Sampling rate : 48.0 kHz
Frame rate : 46.875 FPS (1024 SPF)
Compression mode : Lossy
Stream size : 179 MiB (5%)
Title : Korea 2.0 AAC
Language : Korean
Default : No
Forced : No

Text #1
ID : 4
Format : PGS
Codec ID : S_HDMV/PGS
Codec ID/Info : Picture based subtitle format used on BDs/HD-DVDs
Duration : 2 h 6 min
Bit rate : 37.6 kb/s
Count of elements : 2092
Stream size : 34.0 MiB (1%)
Title : English PGS
Language : English
Default : Yes
Forced : No

Text #2
ID : 5
Format : VobSub
Codec ID : S_VOBSUB
Codec ID/Info : Picture based subtitle format used on DVDs
Duration : 2 h 6 min
Bit rate : 8 005 b/s
Count of elements : 1043
Stream size : 7.23 MiB (0%)
Title : Englisg 1080p
Language : English
Default : No
Forced : No

Text #3
ID : 6
Format : VobSub
Codec ID : S_VOBSUB
Codec ID/Info : Picture based subtitle format used on DVDs
Duration : 2 h 6 min
Bit rate : 4 738 b/s
Count of elements : 1043
Stream size : 4.28 MiB (0%)
Title : English 720p
Language : English
Default : No
Forced : No









The.Battleship.Island.2017.720p.HDRip.H264.ThaiRong.2.0_CpT@CtHts.mkv – 3877874239

Facebook Comments

About the author

one4up .com

Add Comment

Click here to post a comment

Featured

Posts

หนังซูม

[ฝรั่ง]-[ใหม่!ก่อนใคร] • [Zoom V.1] • [* อภิมหาหนังไซไฟถล่มโลกอีกเรื่องของ ดีน เดฟลิน *] • Geostorm (2017) : จีโอสตอร์ม เมฆาถล่มโลก • [* HDCAM.X264.ThaiRong2.0 CpT@CtHts *] • [*CtHts@SiamBIT*] • [พากย์ไทยโรง 2.0 + เสียงอังกฤษ 2.0] • [หนังซูม] • [พากย์ไทยโรง]

Mini HD Blu-Ray 1080p

[ฝรั่ง]-ใหม่ร้อนๆ! [* เล็กพริกขี้หนู 1080p Super HQ *] 2:22 (2017) / 2:22 เวลาเฉียดตาย [*CtHts@SiamBIT*] • [พากย์ไทย 5.1 + เสียงอังกฤษ DTS] • [บรรยายไทย + อังกฤษ] • [เสียงไทย + ซับไทย From MASTER +ซับ PGS คมชัด] *• ไฟล์เล็ก 1080p คุณภาพสูง! •*

หนังซูม

[ฝรั่ง]-ใหม่!!ร้อน • [ภาพชัดบรรยายเกาหลีฝัง] • [* หนังสยองขวัญกระแสแรงที่สุดของปี 2017! *] • It (2017) : อิท โผล่จาก • [720p] • [* KORSUB.HDRip.x264.AC-32.0.ThaiRong2.0 CpT@CtHts *] • [*CtHts@SiamBIT*] • [พากย์ไทยโรง 2.0 + เสียงอังกฤษ 2.0] • [บรรยายเกาหลีฝัง] • [Modified]-[พากย์ไทยโรง]

Advertisement