Boxset DVD CD HD Blu-ray HD Blu-Ray 1080p

ฝรั่ง]-[Mini-HD]- [** กระหึ่มด้วย THAI DTS **]-[*** คมชัดสะใจ ทั้งภาพและเสียง + ความมันส์เวอร์ชั่น แดเนียล เคร็ก ไม่ควรพลาด *** ] James Bond 007 1-4 Quadrilogy (2006-2015) เจมส์ บอนด์ พยัคฆ์ร้าย 007 ภาค 1-4 [Master] [1080p HQ.] [เสียงไทยมาสเตอร์ DTS + ENG DTS & 5.1] [บรรยายไทย + อังกฤษ] [เสียง + ซับ From BluRay MASTER : + ซับไทย PGS คมชัดถึงใจ] [.MKV]-MiniBD.DTS.1080p. [Rip]-[พากย์ไทย บรรยายไทย]

                                                                

Casino Royale-007 พยัคฆ์ร้ายเดิมพันระห่ำโลก *****

James Bond 007: Casino Royale นับเป็น เจมส์ บอนด์ ภาคที่ 21 สร้างจากหนังสือ Casino Royale นิยาย เจมส์ บอนด์ เล่มแรกสุดของ เอียน เฟรมมิ่ง ซึ่งปรากฏสู่สายตาผู้ชมครั้งแรกในรูปแบบซีรีส์ทางโทร ทัศน์ของอังกฤษเมื่อปี 1950 ก่อนจะถูกนำมาสร้างเป็น ซีรีส์สายลับ เจมส์ บอนด์ ครั้งแรกในช่วงปี 1960 และ.สร้างเป็นภาพยนตร์อีกครั้งภายใต้การดูแลของ โซนี่ พิคเจอรส์ สตูดิโอในปี 2006 หลังจากที่ได้รับรหัสประจำตัว 007 ได้ไม่นาน ภารกิจเสี่ยงตายครั้งแรกของสายลับ เจมส์ บอนด์ก็อุบัติขึ้น ชีวิต อาชีพ และ.จิตวิญญาณของชายหนุ่มถูกเปลี่ยนจากคนธรรมดา ไปสู่สายลับมือล่าสังหาร บอนด์ถูกส่งไปปฏิบัติภารกิจครั้งแรกที่บ่อน คาสิโนรอยัล เพื่อสืบและ.ล้างบางกลุ่มผู้ก่อการร้ายรายใหญ่ที่คาส ิโนรอยัล บอนด์ได้เผชิญหน้ากับ Le Chiffre อาชญากรร้ายข้ามชาติ หัวหน้ากลุ่มผู้ก่อการร้าย ดังนั้นเพื่อโค่น Le Chiffre และ.ล้างบางแผนการก่อการร้ายให้สิ้นซาก บอนด์จึงต้องต่อกรกับ Le Chiffre นำมาซึ่งการล่าระห่ำ และ.เกมการพนันที่เดิมพันด้วยชีวิต ภารกิจแรกของสายลับ เจมส์ บอนด์ ครั้งนี้จึงเป็นภารกิจที่ระห่ำ และ.เสี่ยงตายที่สุดในบรรดา เจมส์ บอนดทุก Complete name : D:หนังผี1….James Bond 007 1-4 Quadrilogy (2006-2015) เจมส์ บอนด์ พยัคฆ์ร้าย 007 ภาค 1-41.James Bond 007 Casino Royale (2006) พยัคฆ์ร้ายเดิมพันระห่ำโลกCasino.Royale.2006.1080p.HQ.THAIDTS.x264.BDMASTER-siambit.tv .mkv
Format : Matroska
Format version : Version 4 / Version 2
File size : 4.23 GiB
Duration : 2h 24mn
Overall bit rate : 4 184 Kbps
Encoded date : UTC 2015-11-07 05:51:56
Writing application : mkvmerge v8.1.0 ( Psychedelic Postcard ) 32bit
Writing library : libebml v1.3.1 + libmatroska v1.4.2

Video
ID : 1
Format : AVC
Format/Info : Advanced Video Codec
Format profile : High@L4.1
Format settings, CABAC : Yes
Format settings, ReFrames : 5 frames
Codec ID : V_MPEG4/ISO/AVC
Duration : 2h 24mn
Bit rate : 3 000 Kbps
Width : 1 920 pixels
Height : 792 pixels
Display aspect ratio : 2.40:1
Frame rate mode : Constant
Frame rate : 23.976 fps
Color space : YUV
Chroma subsampling : 4:2:0
Bit depth : 8 bits
Scan type : Progressive
Bits/(Pixel*Frame) : 0.082
Stream size : 2.98 GiB (70%)
Title : Casino.Royale.2006.1080p.HQ.THAIDTS.x264.BDMASTER-siambit.tv
Writing library : x264 core 142 r2431 ac76440
Encoding settings : cabac=1 / ref=5 / deblock=1:0:0 / analyse=0x3:0x133 / me=umh / subme=10 / psy=1 / psy_rd=1.00:0.00 / mixed_ref=1 / me_range=24 / chroma_me=1 / trellis=2 / 8x8dct=1 / cqm=0 / deadzone=21,11 / fast_pskip=1 / chroma_qp_offset=-2 / threads=12 / lookahead_threads=2 / sliced_threads=0 / nr=0 / decimate=1 / interlaced=0 / bluray_compat=0 / constrained_intra=0 / bframes=8 / b_pyramid=2 / b_adapt=2 / b_bias=0 / direct=3 / weightb=1 / open_gop=0 / weightp=2 / keyint=240 / keyint_min=23 / scenecut=40 / intra_refresh=0 / rc_lookahead=60 / rc=2pass / mbtree=1 / bitrate=3000 / ratetol=1.0 / qcomp=0.60 / qpmin=0 / qpmax=69 / qpstep=4 / cplxblur=20.0 / qblur=0.5 / vbv_maxrate=62500 / vbv_bufsize=78125 / nal_hrd=none / filler=0 / ip_ratio=1.40 / aq=1:1.00
Language : English
Default : Yes
Forced : No

Audio #1
ID : 2
Format : DTS
Format/Info : Digital Theater Systems
Mode : 16
Format settings, Endianness : Big
Codec ID : A_DTS
Duration : 2h 24mn
Bit rate mode : Constant
Bit rate : 768 Kbps
Channel(s) : 6 channels
Channel positions : Front: L C R, Side: L R, LFE
Sampling rate : 48.0 KHz
Bit depth : 24 bits
Compression mode : Lossy
Delay relative to video : 1s 0ms
Stream size : 794 MiB (18%)
Title : DTS siambit.me
Language : Thai
Default : Yes
Forced : Yes

Audio #2
ID : 3
Format : AC-3
Format/Info : Audio Coding 3
Mode extension : CM (complete main)
Format settings, Endianness : Big
Codec ID : A_AC3
Duration : 2h 24mn
Bit rate mode : Constant
Bit rate : 384 Kbps
Channel(s) : 6 channels
Channel positions : Front: L C R, Side: L R, LFE
Sampling rate : 48.0 KHz
Bit depth : 16 bits
Compression mode : Lossy
Stream size : 397 MiB (9%)
Title : AC3 siambit.me
Language : English
Default : No
Forced : No

Text #1
ID : 4
Format : VobSub
Codec ID : S_VOBSUB
Codec ID/Info : The same subtitle format used on DVDs
Title : 1080P BD MASTER siambit.me
Language : Thai
Default : No
Forced : No

Text #2
ID : 5
Format : VobSub
Codec ID : S_VOBSUB
Codec ID/Info : The same subtitle format used on DVDs
Title : 1080P BD UNDER
Language : Thai
Default : No
Forced : No

Text #3
ID : 6
Format : VobSub
Codec ID : S_VOBSUB
Codec ID/Info : The same subtitle format used on DVDs
Title : 480P
Language : Thai
Default : No
Forced : No

Text #4
ID : 7
Format : PGS
Codec ID : S_HDMV/PGS
Codec ID/Info : The same subtitle format used on BDs/HD-DVDs
Title : BD MASTER
Language : Thai
Default : Yes
Forced : Yes

Text #5
ID : 8
Format : PGS
Codec ID : S_HDMV/PGS
Codec ID/Info : The same subtitle format used on BDs/HD-DVDs
Title : BD UNDER
Language : Thai
Default : No
Forced : No

Text #6
ID : 9
Format : PGS
Codec ID : S_HDMV/PGS
Codec ID/Info : The same subtitle format used on BDs/HD-DVDs
Title : BD MASTER
Language : English
Default : No
Forced : No

                                                             

Quantum Of Solace-007 พยัคฆ์ร้ายทวงแค้นระห่ำโลก*****

หลังการตายของเวสเปอร์ ผู้หญิงที่เขารัก เจมส์ บอนด์ เดินหน้าล้างแค้นในทันทีโดยใช้ภารกิจของหน่วยงานเป็น ฉากบังหน้า เพื่อจัดการกับวายร้ายที่อยู่เบื้องหลัง ซึ่งในภาคนี้คือเโดมินิค กรีน นักธุรกิจโฉดตัวการสำคัญขององค์กรลับ ที่มีแผนควบคุมแหล่งทรัพยากรธรรมชาติที่สำคัญของโลก โดยมีสายลับสาวอีกหนึ่งคนร่วมชะตา
Complete name : D:หนังผี1….James Bond 007 1-4 Quadrilogy (2006-2015) เจมส์ บอนด์ พยัคฆ์ร้าย 007 ภาค 1-42.James Bond 007 Quantum of Solace (2008) พยัคฆ์ร้ายทวงแค้นระห่ำโลกQuantum.of.Solace.2008.1080p.HQ.THAIDTS.x264.BDMASTER-siambit.tv .mkv
Format : Matroska
Format version : Version 4 / Version 2
File size : 3.15 GiB
Duration : 1h 46mn
Overall bit rate : 4 250 Kbps
Encoded date : UTC 2015-11-07 06:31:32
Writing application : mkvmerge v8.1.0 ( Psychedelic Postcard ) 32bit
Writing library : libebml v1.3.1 + libmatroska v1.4.2

Video
ID : 1
Format : AVC
Format/Info : Advanced Video Codec
Format profile : High@L4.1
Format settings, CABAC : Yes
Format settings, ReFrames : 5 frames
Codec ID : V_MPEG4/ISO/AVC
Duration : 1h 46mn
Bit rate : 3 000 Kbps
Width : 1 920 pixels
Height : 800 pixels
Display aspect ratio : 2.40:1
Frame rate mode : Constant
Frame rate : 23.976 fps
Color space : YUV
Chroma subsampling : 4:2:0
Bit depth : 8 bits
Scan type : Progressive
Bits/(Pixel*Frame) : 0.081
Stream size : 2.24 GiB (71%)
Title : Quantum.of.Solace.2008.1080p.HQ.THAIDTS.x264.BDMASTER-siambit.tv
Writing library : x264 core 142 r2431 ac76440
Encoding settings : cabac=1 / ref=5 / deblock=1:0:0 / analyse=0x3:0x133 / me=umh / subme=10 / psy=1 / psy_rd=1.00:0.00 / mixed_ref=1 / me_range=24 / chroma_me=1 / trellis=2 / 8x8dct=1 / cqm=0 / deadzone=21,11 / fast_pskip=1 / chroma_qp_offset=-2 / threads=12 / lookahead_threads=2 / sliced_threads=0 / nr=0 / decimate=1 / interlaced=0 / bluray_compat=0 / constrained_intra=0 / bframes=8 / b_pyramid=2 / b_adapt=2 / b_bias=0 / direct=3 / weightb=1 / open_gop=0 / weightp=2 / keyint=240 / keyint_min=23 / scenecut=40 / intra_refresh=0 / rc_lookahead=60 / rc=2pass / mbtree=1 / bitrate=3000 / ratetol=1.0 / qcomp=0.60 / qpmin=0 / qpmax=69 / qpstep=4 / cplxblur=20.0 / qblur=0.5 / vbv_maxrate=62500 / vbv_bufsize=78125 / nal_hrd=none / filler=0 / ip_ratio=1.40 / aq=1:1.00
Language : English
Default : Yes
Forced : No

Audio #1
ID : 2
Format : DTS
Format/Info : Digital Theater Systems
Mode : 16
Format settings, Endianness : Big
Codec ID : A_DTS
Duration : 1h 46mn
Bit rate mode : Constant
Bit rate : 768 Kbps
Channel(s) : 6 channels
Channel positions : Front: L C R, Side: L R, LFE
Sampling rate : 48.0 KHz
Bit depth : 24 bits
Compression mode : Lossy
Stream size : 584 MiB (18%)
Title : DTS siambit.me
Language : Thai
Default : Yes
Forced : Yes

Audio #2
ID : 3
Format : AC-3
Format/Info : Audio Coding 3
Mode extension : CM (complete main)
Format settings, Endianness : Big
Codec ID : A_AC3
Duration : 1h 46mn
Bit rate mode : Constant
Bit rate : 384 Kbps
Channel(s) : 6 channels
Channel positions : Front: L C R, Side: L R, LFE
Sampling rate : 48.0 KHz
Bit depth : 16 bits
Compression mode : Lossy
Stream size : 292 MiB (9%)
Title : AC3 siambit.me
Language : English
Default : No
Forced : No

Text #1
ID : 4
Format : VobSub
Codec ID : S_VOBSUB
Codec ID/Info : The same subtitle format used on DVDs
Title : 1080P BD MASTER siambit.me
Language : Thai
Default : No
Forced : No

Text #2
ID : 5
Format : VobSub
Codec ID : S_VOBSUB
Codec ID/Info : The same subtitle format used on DVDs
Title : 1080P BD UNDER
Language : Thai
Default : No
Forced : No

Text #3
ID : 6
Format : VobSub
Codec ID : S_VOBSUB
Codec ID/Info : The same subtitle format used on DVDs
Title : 480P
Language : Thai
Default : No
Forced : No

Text #4
ID : 7
Format : PGS
Codec ID : S_HDMV/PGS
Codec ID/Info : The same subtitle format used on BDs/HD-DVDs
Title : BD MASTER
Language : Thai
Default : Yes
Forced : Yes

Text #5
ID : 8
Format : PGS
Codec ID : S_HDMV/PGS
Codec ID/Info : The same subtitle format used on BDs/HD-DVDs
Title : BD UNDER
Language : Thai
Default : No
Forced : No

Text #6
ID : 9
Format : PGS
Codec ID : S_HDMV/PGS
Codec ID/Info : The same subtitle format used on BDs/HD-DVDs
Title : BD MASTER
Language : English
Default : No
Forced : No

                                                          

***** 007 Skyfall – พลิกรหัสพิฆาตพยัคฆ์ร้าย 007 *****

Skyfall หนึ่งในภาคที่ดีที่สุดของหนังชุดเจมส์ บอนด์ ที่เคยมีมา ในครั้งนี้ความภักดีของบอนด์ (แดเนี่ยล เคร็ก) ที่มีต่อเอ็ม (จูดี้ เดนช์) ถูกทดสอบ เมื่อจอมวายร้ายแห่งโลกไซเบอร์ที่เกี่ยวข้องกับอดีตข องเอ็มได้ใช้จุดนี้มา จู่โจมองค์กร MI6 สายลับ 007 จึงต้องออกตามล่าตัวการที่อยู่เบื้องหลัง ซึ่งก็คือสุดยอดอาชญากรเจ้าความคิดนาม ซิลวา (ฆาเวียร์ บาร์เด็ม) ผู้มีแผนแค้นฝังลึกที่ไม่มีสิ่งใดจะหยุดยั้งความตั้ง ใจเขาได้ Complete name : D:หนังผี1….James Bond 007 1-4 Quadrilogy (2006-2015) เจมส์ บอนด์ พยัคฆ์ร้าย 007 ภาค 1-43.James Bond 007 Skyfall (2012) พลิกรหัสพิฆาตพยัคฆ์ร้าย 007Skyfall.2012.1080p.HQ.THAIDTS.x264.BDMASTER-siambit.tv .mkv
Format : Matroska
Format version : Version 4 / Version 2
File size : 4.21 GiB
Duration : 2h 23mn
Overall bit rate : 4 214 Kbps
Encoded date : UTC 2015-11-07 06:49:27
Writing application : mkvmerge v8.1.0 ( Psychedelic Postcard ) 32bit
Writing library : libebml v1.3.1 + libmatroska v1.4.2

Video
ID : 1
Format : AVC
Format/Info : Advanced Video Codec
Format profile : High@L4.1
Format settings, CABAC : Yes
Format settings, ReFrames : 5 frames
Codec ID : V_MPEG4/ISO/AVC
Duration : 2h 23mn
Bit rate : 3 000 Kbps
Width : 1 920 pixels
Height : 800 pixels
Display aspect ratio : 2.40:1
Frame rate mode : Constant
Frame rate : 23.976 fps
Color space : YUV
Chroma subsampling : 4:2:0
Bit depth : 8 bits
Scan type : Progressive
Bits/(Pixel*Frame) : 0.081
Stream size : 2.98 GiB (71%)
Title : Skyfall.2012.1080p.HQ.THAIDTS.x264.BDMASTER-siambit.tv
Writing library : x264 core 142 r2431 ac76440
Encoding settings : cabac=1 / ref=5 / deblock=1:0:0 / analyse=0x3:0x133 / me=umh / subme=10 / psy=1 / psy_rd=1.00:0.00 / mixed_ref=1 / me_range=24 / chroma_me=1 / trellis=2 / 8x8dct=1 / cqm=0 / deadzone=21,11 / fast_pskip=1 / chroma_qp_offset=-2 / threads=12 / lookahead_threads=2 / sliced_threads=0 / nr=0 / decimate=1 / interlaced=0 / bluray_compat=0 / constrained_intra=0 / bframes=8 / b_pyramid=2 / b_adapt=2 / b_bias=0 / direct=3 / weightb=1 / open_gop=0 / weightp=2 / keyint=240 / keyint_min=23 / scenecut=40 / intra_refresh=0 / rc_lookahead=60 / rc=2pass / mbtree=1 / bitrate=3000 / ratetol=1.0 / qcomp=0.60 / qpmin=0 / qpmax=69 / qpstep=4 / cplxblur=20.0 / qblur=0.5 / vbv_maxrate=62500 / vbv_bufsize=78125 / nal_hrd=none / filler=0 / ip_ratio=1.40 / aq=1:1.00
Language : English
Default : Yes
Forced : No

Audio #1
ID : 2
Format : DTS
Format/Info : Digital Theater Systems
Mode : 16
Format settings, Endianness : Big
Codec ID : A_DTS
Duration : 2h 23mn
Bit rate mode : Constant
Bit rate : 768 Kbps
Channel(s) : 6 channels
Channel positions : Front: L C R, Side: L R, LFE
Sampling rate : 48.0 KHz
Bit depth : 24 bits
Compression mode : Lossy
Stream size : 786 MiB (18%)
Title : DTS siambit.me
Language : Thai
Default : Yes
Forced : Yes

Audio #2
ID : 3
Format : AC-3
Format/Info : Audio Coding 3
Mode extension : CM (complete main)
Format settings, Endianness : Big
Codec ID : A_AC3
Duration : 2h 23mn
Bit rate mode : Constant
Bit rate : 384 Kbps
Channel(s) : 6 channels
Channel positions : Front: L C R, Side: L R, LFE
Sampling rate : 48.0 KHz
Bit depth : 16 bits
Compression mode : Lossy
Stream size : 393 MiB (9%)
Title : AC3 siambit.me
Language : English
Default : No
Forced : No

Text #1
ID : 4
Format : VobSub
Codec ID : S_VOBSUB
Codec ID/Info : The same subtitle format used on DVDs
Title : 1080P BD MASTER siambit.me
Language : Thai
Default : No
Forced : No

Text #2
ID : 5
Format : VobSub
Codec ID : S_VOBSUB
Codec ID/Info : The same subtitle format used on DVDs
Title : 1080P BD UNDER
Language : Thai
Default : No
Forced : No

Text #3
ID : 6
Format : VobSub
Codec ID : S_VOBSUB
Codec ID/Info : The same subtitle format used on DVDs
Title : 480P
Language : Thai
Default : No
Forced : No

Text #4
ID : 7
Format : PGS
Codec ID : S_HDMV/PGS
Codec ID/Info : The same subtitle format used on BDs/HD-DVDs
Title : BD MASTER
Language : Thai
Default : Yes
Forced : Yes

Text #5
ID : 8
Format : PGS
Codec ID : S_HDMV/PGS
Codec ID/Info : The same subtitle format used on BDs/HD-DVDs
Title : BD UNDER
Language : Thai
Default : No
Forced : No

Text #6
ID : 9
Format : PGS
Codec ID : S_HDMV/PGS
Codec ID/Info : The same subtitle format used on BDs/HD-DVDs
Title : BD MASTER
Language : English
Default : No
Forced : No

                                              

ย่อ…Spectre (2015) 007 องค์กรลับ ดับพยัคฆ์ร้าย

หลังจากที่บอนด์ได้รับข้อความปริศนาจากอดีต เขาจึงจำเป็นที่จะต้องตามล่าหาความจริง จนได้ค้นพบกับองค์กรลับสุดร้าย ในระหว่างที่ เอ็ม ต้องปกป้ององค์กรสายลับของ บอนด์ จากปัญหาทางการเมือง บอนด์ จึงต้องเข้าไปค้นหาความจริงและทำให้เขาได้พบกับความชั่วร้ายภายใต้องค์กร SPECTRE
Complete name : D:หนังผี1….James Bond 007 1-4 Quadrilogy (2006-2015) เจมส์ บอนด์ พยัคฆ์ร้าย 007 ภาค 1-44.James Bond 007 Spectre (2015) 007 องค์กรลับ ดับพยัคฆ์ร้ายSpectre.2015.1080p.SuperHQ.THAIDTS.x264.MASTER-siambit.tv .mkv
Format : Matroska
Format version : Version 4 / Version 2
File size : 4.77 GiB
Duration : 2h 28mn
Overall bit rate : 4 606 Kbps
Encoded date : UTC 2016-01-20 01:29:18
Writing application : mkvmerge v8.1.0 ( Psychedelic Postcard ) 32bit
Writing library : libebml v1.3.1 + libmatroska v1.4.2

Video
ID : 1
Format : AVC
Format/Info : Advanced Video Codec
Format profile : High@L4.1
Format settings, CABAC : Yes
Format settings, ReFrames : 4 frames
Codec ID : V_MPEG4/ISO/AVC
Duration : 2h 28mn
Bit rate : 3 000 Kbps
Width : 1 920 pixels
Height : 808 pixels
Display aspect ratio : 2.40:1
Frame rate mode : Constant
Frame rate : 23.976 fps
Color space : YUV
Chroma subsampling : 4:2:0
Bit depth : 8 bits
Scan type : Progressive
Bits/(Pixel*Frame) : 0.081
Stream size : 3.10 GiB (65%)
Title : Spectre.2015.1080p.SuperHQ.THAIDTS.x264.MASTER-siambit.tv
Writing library : x264 core 146 r2538 121396c
Encoding settings : cabac=1 / ref=4 / deblock=1:-3:-3 / analyse=0x3:0x113 / me=umh / subme=11 / psy=1 / psy_rd=1.00:0.00 / mixed_ref=1 / me_range=64 / chroma_me=1 / trellis=2 / 8x8dct=1 / cqm=0 / deadzone=21,11 / fast_pskip=1 / chroma_qp_offset=-2 / threads=24 / lookahead_threads=2 / sliced_threads=0 / nr=0 / decimate=1 / interlaced=0 / bluray_compat=0 / constrained_intra=0 / bframes=4 / b_pyramid=2 / b_adapt=1 / b_bias=0 / direct=1 / weightb=1 / open_gop=0 / weightp=2 / keyint=250 / keyint_min=23 / scenecut=40 / intra_refresh=0 / rc_lookahead=120 / rc=2pass / mbtree=1 / bitrate=3000 / ratetol=1.0 / qcomp=0.60 / qpmin=0 / qpmax=69 / qpstep=4 / cplxblur=20.0 / qblur=0.5 / vbv_maxrate=99999 / vbv_bufsize=99999 / nal_hrd=none / filler=0 / ip_ratio=1.40 / aq=1:1.00
Language : English
Default : Yes
Forced : No

Audio #1
ID : 2
Format : DTS
Format/Info : Digital Theater Systems
Mode : 16
Format settings, Endianness : Big
Codec ID : A_DTS
Duration : 2h 28mn
Bit rate mode : Constant
Bit rate : 768 Kbps
Channel(s) : 6 channels
Channel positions : Front: L C R, Side: L R, LFE
Sampling rate : 48.0 KHz
Bit depth : 24 bits
Compression mode : Lossy
Stream size : 814 MiB (17%)
Title : DTS siambit.me
Language : Thai
Default : Yes
Forced : Yes

Audio #2
ID : 3
Format : DTS
Format/Info : Digital Theater Systems
Mode : 16
Format settings, Endianness : Big
Codec ID : A_DTS
Duration : 2h 28mn
Bit rate mode : Constant
Bit rate : 755 Kbps
Channel(s) : 6 channels
Channel positions : Front: L C R, Side: L R, LFE
Sampling rate : 48.0 KHz
Bit depth : 24 bits
Compression mode : Lossy
Stream size : 799 MiB (16%)
Title : DTS siambit.me
Language : English
Default : No
Forced : No

Text #1
ID : 4
Format : VobSub
Codec ID : S_VOBSUB
Codec ID/Info : The same subtitle format used on DVDs
Title : 1080P FORCED FOR AUDIO THAI siambit.me
Language : Thai
Default : Yes
Forced : Yes

Text #2
ID : 5
Format : VobSub
Codec ID : S_VOBSUB
Codec ID/Info : The same subtitle format used on DVDs
Title : 1080P TSA siambit.me
Language : Thai
Default : No
Forced : No

Text #3
ID : 6
Format : VobSub
Codec ID : S_VOBSUB
Codec ID/Info : The same subtitle format used on DVDs
Title : 1080P TSA YELLOW siambit.me
Language : Thai
Default : No
Forced : No

Text #4
ID : 7
Format : VobSub
Codec ID : S_VOBSUB
Codec ID/Info : The same subtitle format used on DVDs
Title : 1080P TSA UNDER siambit.me
Language : Thai
Default : No
Forced : No

Text #5
ID : 8
Format : VobSub
Codec ID : S_VOBSUB
Codec ID/Info : The same subtitle format used on DVDs
Title : 1080P AS siambit.me
Language : Thai
Default : No
Forced : No

Text #6
ID : 9
Format : VobSub
Codec ID : S_VOBSUB
Codec ID/Info : The same subtitle format used on DVDs
Title : 480P AS siambit.me
Language : Thai
Default : No
Forced : No

Text #7
ID : 10
Format : VobSub
Codec ID : S_VOBSUB
Codec ID/Info : The same subtitle format used on DVDs
Title : 1080P
Language : English
Default : No
Forced : No

Text #8
ID : 11
Format : UTF-8
Codec ID : S_TEXT/UTF8
Codec ID/Info : UTF-8 Plain Text
Title : SRT FORCED FOR THAI AUDIO siambit.me
Language : Thai
Default : No
Forced : No

Text #9
ID : 12
Format : UTF-8
Codec ID : S_TEXT/UTF8
Codec ID/Info : UTF-8 Plain Text
Title : SRT OCR siambit.me
Language : Thai
Default : No
Forced : No

Text #10
ID : 13
Format : UTF-8
Codec ID : S_TEXT/UTF8
Codec ID/Info : UTF-8 Plain Text
Title : SRT
Language : English
Default : No
Forced : No

Text #11
ID : 14
Format : PGS
Codec ID : S_HDMV/PGS
Codec ID/Info : The same subtitle format used on BDs/HD-DVDs
Title : TSA FORCED FOR THAI AUDIO siambit.me
Language : Thai
Default : No
Forced : No

Text #12
ID : 15
Format : PGS
Codec ID : S_HDMV/PGS
Codec ID/Info : The same subtitle format used on BDs/HD-DVDs
Title : TSA siambit.me
Language : Thai
Default : No
Forced : No

Text #13
ID : 16
Format : PGS
Codec ID : S_HDMV/PGS
Codec ID/Info : The same subtitle format used on BDs/HD-DVDs
Title : TSA UNDER siambit.me
Language : Thai
Default : No
Forced : No

Text #14
ID : 17
Format : PGS
Codec ID : S_HDMV/PGS
Codec ID/Info : The same subtitle format used on BDs/HD-DVDs
Title : AS siambit.me
Language : Thai
Default : No
Forced : No

Casino.Royale.2006.1080p.HQ.THAIDTS.x264.BDMASTER-Zakky .mkv – 4.2 GB
Quantum.of.Solace.2008.1080p.HQ.THAIDTS.x264.BDMASTER-Zakky .mkv – 3.2 GB
Skyfall.2012.1080p.HQ.THAIDTS.x264.BDMASTER-Zakky .mkv – 4.2 GB
Spectre.2015.1080p.SuperHQ.THAIDTS.x264.MASTER-Zakky .mkv – 4.8 GB

Facebook Comments

About the author

one4up .com

Add Comment

Click here to post a comment

Featured

Posts

หนังซูม

[ฝรั่ง]-[ใหม่!ก่อนใคร] • [Zoom V.1] • [* อภิมหาหนังไซไฟถล่มโลกอีกเรื่องของ ดีน เดฟลิน *] • Geostorm (2017) : จีโอสตอร์ม เมฆาถล่มโลก • [* HDCAM.X264.ThaiRong2.0 CpT@CtHts *] • [*CtHts@SiamBIT*] • [พากย์ไทยโรง 2.0 + เสียงอังกฤษ 2.0] • [หนังซูม] • [พากย์ไทยโรง]

Mini HD Blu-Ray 1080p

[ฝรั่ง]-ใหม่ร้อนๆ! [* เล็กพริกขี้หนู 1080p Super HQ *] 2:22 (2017) / 2:22 เวลาเฉียดตาย [*CtHts@SiamBIT*] • [พากย์ไทย 5.1 + เสียงอังกฤษ DTS] • [บรรยายไทย + อังกฤษ] • [เสียงไทย + ซับไทย From MASTER +ซับ PGS คมชัด] *• ไฟล์เล็ก 1080p คุณภาพสูง! •*

หนังซูม

[ฝรั่ง]-ใหม่!!ร้อน • [ภาพชัดบรรยายเกาหลีฝัง] • [* หนังสยองขวัญกระแสแรงที่สุดของปี 2017! *] • It (2017) : อิท โผล่จาก • [720p] • [* KORSUB.HDRip.x264.AC-32.0.ThaiRong2.0 CpT@CtHts *] • [*CtHts@SiamBIT*] • [พากย์ไทยโรง 2.0 + เสียงอังกฤษ 2.0] • [บรรยายเกาหลีฝัง] • [Modified]-[พากย์ไทยโรง]

Advertisement