Mini HD Blu-Ray 1080p

Gangster Squad แก๊งกุดหัวเจ้าพ่อ (2013)

Layout 1

                                                                   

ย่อ… Gangster Squad (2013) แก๊งกุดหัวเจ้าพ่อ

ที่ลอส แองเจลิส เมื่อปี 1949 มิคกี้ โคเฮ็น ราชาผู้ทรงอิทธิพลชาวบรูคลินผู้โหดเหี้ยม (ฌอน เพ็นน์) ดำเนินธุรกิจในเมืองแห่งนี้โดยการตักตวงผลประโยชน์โด ยมิชอบจากยา ปืน โสเภณี และหากเขามีช่องทางที่รวมถึงการรับพนันทางโทรศัพท์ที ่อยู่ทางตะวันกของชิคาโก ซึ่งเขาลงมือทุกอย่างโดยไม่ได้รับการคุ้มกันจากมือปื นรับจ้างส่วนตัวของเขาเท่านั้น แต่รวมถึงเจ้าหน้าที่ตำรวจ นักการเมือง และผู้ที่อยู่ภายใต้การควบคุมของเขาด้วย เท่านั้นก็เพียงพอที่จะขู่ขวัญตำรวจผู้โชกโชนและกล้า หาญได้แล้ว? เว้นแต่ทีมงานลับขนาดย่อมนอกวงการของ LAPD ที่นำโดย จ่า จอห์น โอ?มาร่า (จอช โบรลิน) และเจอร์รี่ วูเทอร์ส (ไรอัน กอสลิง) ผู้ร่วมมือกันเพื่อพยายามทำลายล้างโลกของโคเฮ็นให้สิ ้นซาก
Complete name : D:จีน1…Gangster Squad (2013) แก๊งกุดหัวเจ้าพ่อGangster.Squad.2013.1080p.BrRip.x264.DTS_by NongZEZA@CtHts .mkv
Format : Matroska
Format version : Version 4 / Version 2
File size : 2.61 GiB
Duration : 1h 52mn
Overall bit rate : 3 312 Kbps
Movie name : Gangster.Squad.2013.1080p.BrRip.x264.DTS_by NongZEZA@CtHts
Encoded date : UTC 2010-02-22 21:41:31
Writing application : mkvmerge v5.9.0 ( On The Loose ) built on Dec 9 2012 15:37:01
Writing library : libebml v1.3.0 + libmatroska v1.4.0

Video
ID : 1
Format : AVC
Format/Info : Advanced Video Codec
Format profile : High@L4.0
Format settings, CABAC : Yes
Format settings, ReFrames : 5 frames
Codec ID : V_MPEG4/ISO/AVC
Duration : 1h 52mn
Bit rate : 2 052 Kbps
Width : 1 920 pixels
Height : 800 pixels
Display aspect ratio : 2.40:1
Frame rate mode : Constant
Frame rate : 23.976 fps
Color space : YUV
Chroma subsampling : 4:2:0
Bit depth : 8 bits
Scan type : Progressive
Bits/(Pixel*Frame) : 0.056
Stream size : 1.66 GiB (64%)
Title : Gangster.Squad.2013.1080p.BrRip.x264.DTS_by NongZEZA@CtHts
Writing library : x264 core 129 r2245 bc13772
Encoding settings : cabac=1 / ref=5 / deblock=1:-1:-1 / analyse=0x3:0x133 / me=umh / subme=9 / psy=1 / psy_rd=1.00:0.15 / mixed_ref=1 / me_range=16 / chroma_me=1 / trellis=2 / 8x8dct=1 / cqm=0 / deadzone=21,11 / fast_pskip=1 / chroma_qp_offset=-3 / threads=12 / lookahead_threads=2 / sliced_threads=0 / nr=0 / decimate=1 / interlaced=0 / bluray_compat=0 / constrained_intra=0 / bframes=3 / b_pyramid=2 / b_adapt=2 / b_bias=0 / direct=3 / weightb=1 / open_gop=0 / weightp=2 / keyint=240 / keyint_min=23 / scenecut=40 / intra_refresh=0 / rc_lookahead=60 / rc=2pass / mbtree=1 / bitrate=2052 / ratetol=1.0 / qcomp=0.60 / qpmin=0 / qpmax=69 / qpstep=4 / cplxblur=20.0 / qblur=0.5 / ip_ratio=1.40 / aq=1:1.00
Language : English
Default : Yes
Forced : No

Audio #1
ID : 2
Format : DTS
Format/Info : Digital Theater Systems
Mode : 16
Format settings, Endianness : Big
Codec ID : A_DTS
Duration : 1h 52mn
Bit rate mode : Constant
Bit rate : 755 Kbps
Channel(s) : 6 channels
Channel positions : Front: L C R, Side: L R, LFE
Sampling rate : 48.0 KHz
Bit depth : 24 bits
Compression mode : Lossy
Stream size : 609 MiB (23%)
Title : English DTS
Language : English
Default : No
Forced : No

Audio #2
ID : 3
Format : AC-3
Format/Info : Audio Coding 3
Mode extension : CM (complete main)
Format settings, Endianness : Big
Codec ID : A_AC3
Duration : 1h 52mn
Bit rate mode : Constant
Bit rate : 384 Kbps
Channel(s) : 6 channels
Channel positions : Front: L C R, Side: L R, LFE
Sampling rate : 48.0 KHz
Bit depth : 16 bits
Compression mode : Lossy
Stream size : 310 MiB (12%)
Title : Thai DVD Master
Language : Thai
Default : Yes
Forced : Yes

Text #1
ID : 4
Format : VobSub
Codec ID : S_VOBSUB
Codec ID/Info : The same subtitle format used on DVDs
Title : Thai 480p From DVD Master
Language : Thai
Default : No
Forced : No

Text #2
ID : 5
Format : VobSub
Codec ID : S_VOBSUB
Codec ID/Info : The same subtitle format used on DVDs
Title : Thai 1080p
Language : Thai
Default : Yes
Forced : Yes

Text #3
ID : 6
Format : VobSub
Codec ID : S_VOBSUB
Codec ID/Info : The same subtitle format used on DVDs
Title : Thai 1080p Out
Language : Thai
Default : No
Forced : No

Text #4
ID : 7
Format : VobSub
Codec ID : S_VOBSUB
Codec ID/Info : The same subtitle format used on DVDs
Title : Thai 1080p Yellow
Language : Thai
Default : No
Forced : No

Text #5
ID : 8
Format : PGS
Codec ID : S_HDMV/PGS
Codec ID/Info : The same subtitle format used on BDs/HD-DVDs
Title : Thai PGS
Language : Thai
Default : No
Forced : No

Text #6
ID : 9
Format : PGS
Codec ID : S_HDMV/PGS
Codec ID/Info : The same subtitle format used on BDs/HD-DVDs
Title : Thai PGS Out
Language : Thai
Default : No
Forced : No

Text #7
ID : 10
Format : PGS
Codec ID : S_HDMV/PGS
Codec ID/Info : The same subtitle format used on BDs/HD-DVDs
Title : Thai PGS Yellow
Language : Thai
Default : No
Forced : No

Text #8
ID : 11
Format : UTF-8
Codec ID : S_TEXT/UTF8
Codec ID/Info : UTF-8 Plain Text
Title : English
Language : English
Default : No
Forced : No

 

Gangster.Squad.2013.1080p.BrRip.x264.DTS_by NongZEZA@CtHts .mkv – 2805375481

Facebook Comments

Posts

HD Blu-Ray 1080p

[ฝรั่ง]-ใหม่ร้อนๆ! +[* เสียงไทยมาสเตอร์ *] Sleepless (2017) : คืนเดือด คนระห่ำ [*CtHts@SiamBIT*] • [พากย์ไทย มาสเตอร์ + เสียงอังกฤษ DTS] • [บรรยาย อังกฤษ] • [เสียงไทย MASTER] • [ เล็กพริกขี้หนู 1080p HQ ] Or *• ไฟล์เล็ก 1080p คุณภาพสูง

Advertisement