หนังซูม

[ฝรั่ง]-[ใหม่!!ภาพมาสเตอร์ชนโรง!!] The Hitman s Bodyguard (2017) : แสบ ซ่าส์ แบบว่าบอดี้การ์ด • [* 1080p.WEBRip.ThaiRong5.1.x264 CpT@CtHts *] • [*NetFlix Japan*] [Sound ThaiRong 5.1 + English DD5.1] [Sub English] [พากย์ไทยโรง]

ภาพยนตร์แอคชั่นสุดมันจาก : แพททริก ฮิวจ์ส
บอร์ดี้การ์ด “ระดับเทพ” ต้องมาทำหน้าที่เป็นผู้คุ้มกันภัยให้กับมือปืน “ปากมาก”!
••• 1080p.WEBRip.ThaiRong5.1.x264_CpT@CtHts •••
พากย์ไทยโรง 5.1 + เสียงอังกฤษ DD5.1 + บรรยายอังกฤษ

 

Hitman Bodyguard บอดี้การ์ดระดับเทพอันดับหนึ่งในวงการ (รับบทโดยไรอัน เรย์โนลด์) ที่ได้รับมอบหมายให้มาคุ้มกันนักฆ่าระดับพระกาฬผู้มี ฝีปากไม่เป็นรองใคร (รับบทโดยซามูเอล แอล. แจ็คสัน) ซึ่งสายงานมันก็จะขัดๆกันหน่อย แต่ในภารกิจนี้พวกเขาต้องร่วมมือกันในการเดินทางจากล อนดอนไปยังกรุงเฮกเพื่อขึ้นศาลให้ทันภายใน 24 ชม.

Format : Matroska
File size : 7.00 GiB
Duration : 1 h 58 min
Overall bit rate : 8 477 kb/s
Movie name : The.Hitmans.Bodyguard.2017.1080p.WEBRip.ThaiRong5. 1.x264_CpT@CtHts

Video
ID : 1
Format : AVC
Format/Info : Advanced Video Codec
Format profile : Main@L4
Format settings, CABAC : Yes
Format settings, RefFrames : 3 frames
Codec ID : V_MPEG4/ISO/AVC
Duration : 1 h 58 min
Bit rate mode : Variable
Bit rate : 7 500 kb/s
Maximum bit rate : 11.2 Mb/s
Width : 1 920 pixels
Height : 1 080 pixels
Display aspect ratio : 16:9
Frame rate mode : Constant
Frame rate : 23.976 (24000/1001) FPS
Color space : YUV
Chroma subsampling : 4:2:0
Bit depth : 8 bits
Scan type : Progressive
Bits/(Pixel*Frame) : 0.151
Stream size : 6.05 GiB (86%)
Title : The.Hitmans.Bodyguard.2017.1080p.WEBRip.ThaiRong5. 1.x264_CpT@CtHts
Writing library : x264 core 118
Encoding settings : cabac=1 / ref=3 / deblock=1:0:0 / analyse=0x1:0x111 / me=umh / subme=10 / psy=1 / psy_rd=1.00:0.00 / mixed_ref=1 / me_range=24 / chroma_me=1 / trellis=2 / 8x8dct=0 / cqm=0 / deadzone=21,11 / fast_pskip=1 / chroma_qp_offset=-2 / threads=8 / sliced_threads=0 / nr=0 / decimate=1 / interlaced=0 / bluray_compat=0 / constrained_intra=0 / bframes=2 / b_pyramid=0 / b_adapt=2 / b_bias=0 / direct=3 / weightb=1 / open_gop=0 / weightp=2 / keyint=48 / keyint_min=25 / scenecut=0 / intra_refresh=0 / rc_lookahead=0 / rc=2pass / mbtree=1 / bitrate=7500 / ratetol=1.0 / qcomp=0.50 / qpmin=6 / qpmax=51 / qpstep=4 / cplxblur=20.0 / qblur=0.5 / vbv_maxrate=11250 / vbv_bufsize=15000 / nal_hrd=vbr / ip_ratio=1.40 / aq=1:1.00
Language : English
Default : Yes
Forced : No

Audio #1
ID : 2
Format : AC-3
Format/Info : Audio Coding 3
Format settings, Endianness : Big
Codec ID : A_AC3
Duration : 1 h 58 min
Bit rate mode : Constant
Bit rate : 448 kb/s
Channel(s) : 6 channels
Channel positions : Front: L C R, Side: L R, LFE
Sampling rate : 48.0 kHz
Frame rate : 31.250 FPS (1536 SPF)
Bit depth : 16 bits
Compression mode : Lossy
Delay relative to video : -42 ms
Stream size : 379 MiB (5%)
Title : ThaiRong 5.1 AC-3 By ~Mr.Captain~
Language : Thai
Service kind : Complete Main
Default : No
Forced : No

Audio #2
ID : 3
Format : AAC
Format/Info : Advanced Audio Codec
Format profile : LC
Codec ID : A_AAC
Duration : 1 h 58 min
Bit rate : 317 kb/s
Channel(s) : 2 channels
Channel positions : Front: L R
Sampling rate : 48.0 kHz
Frame rate : 46.875 FPS (1024 SPF)
Compression mode : Lossy
Delay relative to video : -42 ms
Stream size : 268 MiB (4%)
Title : ThaiRong AAC By ~Mr.Captain~
Language : Thai
Default : No
Forced : No

Audio #3
ID : 4
Format : AC-3
Format/Info : Audio Coding 3
Format settings, Endianness : Big
Codec ID : A_AC3
Duration : 1 h 58 min
Bit rate mode : Constant
Bit rate : 384 kb/s
Channel(s) : 6 channels
Channel positions : Front: L C R, Side: L R, LFE
Sampling rate : 48.0 kHz
Frame rate : 31.250 FPS (1536 SPF)
Bit depth : 16 bits
Compression mode : Lossy
Delay relative to video : -42 ms
Stream size : 325 MiB (5%)
Title : English DD5.1 AC-3
Language : English
Service kind : Complete Main
Default : Yes
Forced : No

Text #1
ID : 5
Format : UTF-8
Codec ID : S_TEXT/UTF8
Codec ID/Info : UTF-8 Plain Text
Duration : 1 h 43 min
Bit rate : 1 b/s
Count of elements : 48
Stream size : 1.27 KiB (0%)
Title : English Forced
Language : English
Default : Yes
Forced : Yes

Text #2
ID : 6
Format : UTF-8
Codec ID : S_TEXT/UTF8
Codec ID/Info : UTF-8 Plain Text
Duration : 1 h 56 min
Bit rate : 62 b/s
Count of elements : 1724
Stream size : 53.2 KiB (0%)
Title : English
Language : English
Default : No
Forced : No

The.Hitmans.Bodyguard.2017.1080p.WEBRip.ThaiRong5.1.x264_CpT@CtHts.mkv – 7514177346

Facebook Comments

About the author

one4up .com

Add Comment

Click here to post a comment

Featured

Posts

HD Blu-Ray 1080p

[ฝรั่ง]-ใหม่ร้อนๆ! +[* เสียงไทยมาสเตอร์ *] Sleepless (2017) : คืนเดือด คนระห่ำ [*CtHts@SiamBIT*] • [พากย์ไทย มาสเตอร์ + เสียงอังกฤษ DTS] • [บรรยาย อังกฤษ] • [เสียงไทย MASTER] • [ เล็กพริกขี้หนู 1080p HQ ] Or *• ไฟล์เล็ก 1080p คุณภาพสูง

Advertisement