HD Blu-Ray 1080p ซีรีย์ฝรั่ง

[ฝรั่ง] Game of Thrones Season 7 Finale (Episode 07 : The Dragon and the Wolf) มหาศึกชิงบัลลังก์ ปี 7 ตอนที่ 7 Web-DL 1080p [เสียงอังกฤษ 5.1 + ซับไทยจาก HBO คมชัดแบบ PGS+IDX 1080p] (ฉบับเต็มไม่มีตัด ไม่เซ็นเซอร์)[Soundtrack บรรยายไทย]

Game of Thrones Season 7 - Episode 4

 

เรื่องย่อ
มหาศึกชิงบัลลังก์ (อังกฤษ: Game of Thrones) เป็นภาพยนตร์ชุดทางโทรทัศน์แนวแฟนตาซีย้อนยุคของสถาน ีโทรทัศน์เอชบีโอ สร้างสรรค์โดยเดวิด เบนิออฟฟ์ และดี. บี. ไวส์ ดัดแปลงจากหนังสือเล่มที่หนึ่งของชุดหนังสือนิยายขาย ดีของจอร์จ อาร์. อาร์. มาร์ติน ชุด มหาศึกชิงบัลลังก์ เรื่อง เกมล่าบัลลังก์ ฉายครั้งแรกในสหรัฐอเมริกา 17 เมษายน 2554 ภาพยนตร์ชุดนี้ได้รับเสียงตอบรับอย่างดีมาก มีผู้ติดตามเป็นจำนวนมาก และได้รับการอนุมัติให้ทำฤดูกาลที่ 2 ต่อจากฤดูกาลแรก ในวันที่ 19 เมษายน 2554 สองวันหลังจากฉายตอนแรก

 

 

Complete name : Game.of.Thrones.S07E07.The.Dragon.and.the.Wolf.108 0p.Web-DL.DDP5.1.H.264-vicvicky.mkv
Format : Matroska
Format version : Version 4 / Version 2
File size : 4.79 GiB
Duration : 1 h 21 min
Overall bit rate mode : Variable
Overall bit rate : 8 436 kb/s
Encoded date : UTC 2017-08-28 09:12:07
Writing application : mkvmerge v8.9.0 ( Father Daughter ) 64bit
Writing library : libebml v1.3.3 + libmatroska v1.4.4

Video
ID : 1
Format : AVC
Format/Info : Advanced Video Codec
Format profile : High@L4
Format settings, CABAC : Yes
Format settings, RefFrames : 4 frames
Codec ID : V_MPEG4/ISO/AVC
Duration : 1 h 21 min
Bit rate mode : Variable
Bit rate : 7 710 kb/s
Maximum bit rate : 15.0 Mb/s
Width : 1 920 pixels
Height : 1 080 pixels
Display aspect ratio : 16:9
Frame rate mode : Constant
Frame rate : 23.976 (24000/1001) FPS
Color space : YUV
Chroma subsampling : 4:2:0
Bit depth : 8 bits
Scan type : Progressive
Bits/(Pixel*Frame) : 0.155
Stream size : 4.38 GiB (91%)
Default : Yes
Forced : No
Color range : Limited
Color primaries : BT.709
Transfer characteristics : BT.709
Matrix coefficients : BT.709

Audio
ID : 2
Format : E-AC-3
Format/Info : Enhanced Audio Coding 3
Format settings, Endianness : Big
Codec ID : A_EAC3
Duration : 1 h 21 min
Bit rate mode : Constant
Bit rate : 640 kb/s
Channel(s) : 6 channels
Channel positions : Front: L C R, Side: L R, LFE
Sampling rate : 48.0 kHz
Frame rate : 187.500 FPS (256 SPF)
Compression mode : Lossy
Delay relative to video : 27 ms
Stream size : 372 MiB (8%)
Language : English
Service kind : Complete Main
Default : Yes
Forced : No

Text #1
ID : 3
Format : VobSub
Codec ID : S_VOBSUB
Codec ID/Info : Picture based subtitle format used on DVDs
Duration : 1 h 15 min
Bit rate : 2 516 b/s
Count of elements : 884
Stream size : 1.36 MiB (0%)
Title : Thai 480p
Language : Thai
Default : Yes
Forced : No

Text #2
ID : 4
Format : VobSub
Codec ID : S_VOBSUB
Codec ID/Info : Picture based subtitle format used on DVDs
Duration : 1 h 15 min
Bit rate : 3 527 b/s
Count of elements : 884
Stream size : 1.91 MiB (0%)
Title : Thai 720p
Language : Thai
Default : No
Forced : No

Text #3
ID : 5
Format : VobSub
Codec ID : S_VOBSUB
Codec ID/Info : Picture based subtitle format used on DVDs
Duration : 1 h 15 min
Bit rate : 6 503 b/s
Count of elements : 884
Stream size : 3.52 MiB (0%)
Title : Tahoma 1080p From HBO
Language : Thai
Default : No
Forced : No

Text #4
ID : 6
Format : VobSub
Codec ID : S_VOBSUB
Codec ID/Info : Picture based subtitle format used on DVDs
Duration : 1 h 15 min
Bit rate : 9 118 b/s
Count of elements : 884
Stream size : 4.94 MiB (0%)
Title : Angsna 1080p From HBO
Language : Thai
Default : No
Forced : No

Text #5
ID : 7
Format : PGS
Codec ID : S_HDMV/PGS
Codec ID/Info : Picture based subtitle format used on BDs/HD-DVDs
Duration : 1 h 15 min
Bit rate : 29.1 kb/s
Count of elements : 1768
Stream size : 15.8 MiB (0%)
Title : Tahoma PGS From HBO
Language : Thai
Default : No
Forced : No

Text #6
ID : 8
Format : PGS
Codec ID : S_HDMV/PGS
Codec ID/Info : Picture based subtitle format used on BDs/HD-DVDs
Duration : 1 h 15 min
Bit rate : 39.0 kb/s
Count of elements : 1768
Stream size : 21.1 MiB (0%)
Title : Angsna PGS From HBO
Language : Thai
Default : No
Forced : No

Text #7
ID : 9
Format : UTF-8
Codec ID : S_TEXT/UTF8
Codec ID/Info : UTF-8 Plain Text
Duration : 1 h 20 min
Bit rate : 51 b/s
Count of elements : 958
Stream size : 30.4 KiB (0%)
Language : English
Default : No
Forced : No

Menu
00:00:00.000 : en:Ratings
00:00:02.379 : en:Previously On
00:01:33.379 : en:Studio Logo
00:01:39.379 : en:Opening Credits
00:03:27.379 : en:Bronn oversees the fortifications
00:06:17.379 : en:Tyrion and Jon Snow sail to King s Landing
00:07:34.379 : en:Meeting at the dragonpit
00:30:13.379 : en:Tyrion tries to sway he sister s choice.
00:37:11.379 : en:Cersei returns
00:41:18.379 : en:Littlefinger and Sansa talk how dangerous Arya is
00:44:56.379 : en:Jon Snow and Daenerys prepare to mobilize
00:50:10.379 : en:Harrag confronts Theon
00:54:30.379 : en:There s no justice in the world, not unless we make it
01:00:38.379 : en:Cersei threatens Jaime
01:05:57.379 : en:Samwell speaks with Bran
01:12:19.379 : en:Three Blasts
01:20:05.379 : en:End Credits
01:21:21.379 : en:Inside the Episode

 





 

 

Facebook Comments

About the author

one4up .com

Add Comment

Click here to post a comment

Featured

Posts

HD Blu-Ray 1080p

[ฝรั่ง]-ใหม่ร้อนๆ! +[* เสียงไทยมาสเตอร์ *] Sleepless (2017) : คืนเดือด คนระห่ำ [*CtHts@SiamBIT*] • [พากย์ไทย มาสเตอร์ + เสียงอังกฤษ DTS] • [บรรยาย อังกฤษ] • [เสียงไทย MASTER] • [ เล็กพริกขี้หนู 1080p HQ ] Or *• ไฟล์เล็ก 1080p คุณภาพสูง

Advertisement