HD Blu-Ray 1080p

[ฝรั่ง]-[*ใหม่ สดๆ ร้อนๆ Death Note ฉบับฮอลลีวูดโดย Netflix*] Death Note (2017) – เดธ โน้ต [1080p WEB-DL] [เสียงอังกฤษ 5.1] [บรรยายไทย + อังกฤษ] [ซับไทยจาก Netflix] [ซับ PGS, IDX, SRT คมกริบ]

Rating: 7.9/10  Year: 2017 Genres: Fantasy / Horror / Mystery / Thriller Runtime: 101 min Language: English Director: Adam Wingard Writers: n/A Cast: Lakeith Stanfield / Willem Dafoe / Margaret Qualley Plot:

Light Turner, a bright student, stumbles across a mystical notebook that has the power to kill any person whose name he writes in it…

เรื่องย่อ

ด้วยการหลงอำนาจของสมุดมหัศจรรย์ทำให้เด็กหนุ่มคนหนึ ่งเริ่มฆ่าผู้คนที่เขาคิดว่าไม่สมควรจะมีชีวิตอยู่ต่ อไป เรื่องราวที่สร้างจากการ์ตูนญี่ปุ่นชื่อดัง

ข้อมูลภาพยนตร์

General
Unique ID : 243815285861594919702369593487147085093 (0xB76D1DB1C8B1A23480F15C4FCF4B2D25)
Complete name : Death.Note.2017.1080p.NF.WEBRip.DD5.1.×264-jaideejung007.mkv
Format : Matroska
Format version : Version 4 / Version 2
File size : 3.01 GiB
Duration : 1 h 40 min
Overall bit rate mode : Variable
Overall bit rate : 4 297 kb/s
Movie name : Death.Note.2017.1080p.NF.WEBRip.DD5.1.×264-jaideejung007
Encoded date : UTC 2017-08-25 11:13:51
Writing application : mkvmerge v15.0.0 ( Duel with the Devil ) 64-bit
Writing library : libebml v1.3.5 + libmatroska v1.4.5

Video
ID : 1
Format : AVC
Format/Info : Advanced Video Codec
Format profile : Main@L4
Format settings, CABAC : Yes
Format settings, ReFrames : 3 frames
Codec ID : V_MPEG4/ISO/AVC
Duration : 1 h 40 min
Bit rate mode : Variable
Bit rate : 3 830 kb/s
Maximum bit rate : 5 745 kb/s
Width : 1 920 pixels
Height : 1 080 pixels
Display aspect ratio : 16:9
Frame rate mode : Constant
Frame rate : 23.976 (24000/1001) FPS
Color space : YUV
Chroma subsampling : 4:2:0
Bit depth : 8 bits
Scan type : Progressive
Bits/(Pixel*Frame) : 0.077
Stream size : 2.67 GiB (89%)
Title : Death.Note.2017.1080p.NF.WEBRip.DD5.1.×264-jaideejung007
Writing library : x264 core 118
Encoding settings : cabac=1 / ref=3 / deblock=1:0:0 / analyse=0x1:0x111 / me=umh / subme=10 / psy=1 / psy_rd=1.00:0.00 / mixed_ref=1 / me_range=24 / chroma_me=1 / trellis=2 / 8x8dct=0 / cqm=0 / deadzone=21,11 / fast_pskip=1 / chroma_qp_offset=-2 / threads=8 / sliced_threads=0 / nr=0 / decimate=1 / interlaced=0 / bluray_compat=0 / constrained_intra=0 / bframes=2 / b_pyramid=0 / b_adapt=2 / b_bias=0 / direct=3 / weightb=1 / open_gop=0 / weightp=2 / keyint=48 / keyint_min=25 / scenecut=0 / intra_refresh=0 / rc_lookahead=0 / rc=2pass / mbtree=1 / bitrate=3830 / ratetol=1.0 / qcomp=0.50 / qpmin=6 / qpmax=51 / qpstep=4 / cplxblur=20.0 / qblur=0.5 / vbv_maxrate=5745 / vbv_bufsize=7660 / nal_hrd=vbr / ip_ratio=1.40 / aq=1:1.00
Language : English
Default : Yes
Forced : No

Audio
ID : 2
Format : AC-3
Format/Info : Audio Coding 3
Mode extension : CM (complete main)
Format settings, Endianness : Big
Codec ID : A_AC3
Duration : 1 h 40 min
Bit rate mode : Constant
Bit rate : 384 kb/s
Channel(s) : 6 channels
Channel positions : Front: L C R, Side: L R, LFE
Sampling rate : 48.0 kHz
Frame rate : 31.250 FPS (1536 spf)
Compression mode : Lossy
Stream size : 275 MiB (9%)
Title : Death.Note.2017.1080p.NF.WEBRip.DD5.1.×264-jaideejung007
Language : English
Default : Yes
Forced : No

Text #1
ID : 3
Format : VobSub
Codec ID : S_VOBSUB
Codec ID/Info : Picture based subtitle format used on DVDs
Duration : 1 h 39 min
Bit rate : 2 719 b/s
Count of elements : 1076
Stream size : 1.93 MiB (0%)
Title : Thai 480p
Language : Thai
Default : No
Forced : No

Text #2
ID : 4
Format : VobSub
Codec ID : S_VOBSUB
Codec ID/Info : Picture based subtitle format used on DVDs
Duration : 1 h 39 min
Bit rate : 5 064 b/s
Count of elements : 1076
Stream size : 3.60 MiB (0%)
Title : Thai 720p
Language : Thai
Default : No
Forced : No

Text #3
ID : 5
Format : VobSub
Codec ID : S_VOBSUB
Codec ID/Info : Picture based subtitle format used on DVDs
Duration : 1 h 39 min
Bit rate : 9 137 b/s
Count of elements : 1076
Stream size : 6.50 MiB (0%)
Title : Thai 1080p
Language : Thai
Default : Yes
Forced : Yes

Text #4
ID : 6
Format : VobSub
Codec ID : S_VOBSUB
Codec ID/Info : Picture based subtitle format used on DVDs
Duration : 1 h 39 min
Bit rate : 8 176 b/s
Count of elements : 1076
Stream size : 5.82 MiB (0%)
Title : Thai 1080p Yellow
Language : Thai
Default : No
Forced : No

Text #5
ID : 7
Format : PGS
Codec ID : S_HDMV/PGS
Codec ID/Info : Picture based subtitle format used on BDs/HD-DVDs
Duration : 1 h 39 min
Bit rate : 36.5 kb/s
Count of elements : 2152
Stream size : 26.0 MiB (1%)
Title : Thai PGS
Language : Thai
Default : No
Forced : No

Text #6
ID : 8
Format : PGS
Codec ID : S_HDMV/PGS
Codec ID/Info : Picture based subtitle format used on BDs/HD-DVDs
Duration : 1 h 39 min
Bit rate : 36.5 kb/s
Count of elements : 2152
Stream size : 26.0 MiB (1%)
Title : Thai PGS OUT
Language : Thai
Default : No
Forced : No

Text #7
ID : 9
Format : UTF-8
Codec ID : S_TEXT/UTF8
Codec ID/Info : UTF-8 Plain Text
Duration : 2 min 11 s
Bit rate : 44 b/s
Count of elements : 17
Stream size : 737 Bytes (0%)
Title : CC
Language : English
Default : No
Forced : Yes

Text #8
ID : 10
Format : UTF-8
Codec ID : S_TEXT/UTF8
Codec ID/Info : UTF-8 Plain Text
Duration : 1 h 39 min
Bit rate : 64 b/s
Count of elements : 1267
Stream size : 47.0 KiB (0%)
Title : CC (SDH)
Language : English
Default : No
Forced : No

 

ภาพตัวอย่าง แคปจากตัวไฟล์ภาพยนตร์

Death.Note.2017.1080p.NF.WEBRip.DD5.1.x264-jaideejung007.mkv – 3231921133

Facebook Comments

About the author

one4up .com

Add Comment

Click here to post a comment

Featured

Posts

DVD Master

[ฝรั่ง]-มาใหม่ร้อนๆ!! [* DVD Modified + Menu.*] Kidnap (2017) : ล่าหยุดนรก [*CtHts@SiamBIT*] • [ พากย์ไทย 5.1 + เสียงอังกฤษ 5.1 ] • [ บรรยายไทย + อังกฤษ ] • [DVD5] • [ พากย์ไทย บรรยายไทย มาสเตอร์ ] •• หนังใหม่ประจำสัปดาห์ ••> Release Date : 12/10/2017

HD Blu-Ray 1080p

[• ญี่ปุ่น •]-ใหม่ร้อนๆ! [* เล็กพริกขี้หนู 1080p Super HQ *] Let s Go, JETS! From Small Town Girls to U.S. Champions?! (2017) : เชียร์เกิร์ล เชียร์เธอ [*CtHts@SiamBIT*] • [พากย์ไทย 5.1 + เสียงญี่ปุ่น DTS] • [บรรยายไทย + อังกฤษ] • [เสียงไทย + ซับไทย From MASTER +ซับ PGS คมชัด] *• ไฟล์เล็ก 1080p คุณภาพสูง! •*

Advertisement