4K UHD หนังซูม

[จีน]-[ใหม่!!ร้อนๆ] • [ไฟล์สมบูรณ์ทำ CG เสร็จแล้ว] • Wukong (2017) : หงอคง กำเนิดเทพเจ้าวานร • [2160p] • [4K] • [* WEB-DL.H264.AC-3.ThaiRong CpT@CtHts *] • [*CtHts@SiamBIT*] • [Sound ThaiRong 2.0 AC3/AAC + Chinese 2.0] • [Sub Chinese + English] • [Modified] • [พากย์ไทยโรง]

ตำนานบทใหม่ของ WU KONG หงอคง: กำเนิดเทพเจ้าวานร
สุดยอดภาพยนตร์ไซไฟเรื่องเยี่ยมจากจีน ที่เนรมิตรทุนสร้างกว่า 1,200 ล้าน!
••• 2160p.4K.WEB-DL.H264.AC-3.ThaiRong_CpT@CtHts •••
พากย์ไทยโรง 2.0 AC-3 & AAC + เสียงจีน 2.0 AAC + บรรยายจีน/อังกฤษฝัง

WU KONG ราชาวานรผู้มีถิ่นกำหนิดในหุบเขาฮั้วกั้วะ ถูกฮั้วจีซึ่งเป็นแม่ทัพสวรรค์หมายปองชีวิต แต่เขาได้รับการช่วยเหลือจากพระโพธิ์สัตว์และได้กลายเป็นศิษย์ของเขา ในขณะเดียวกันหยางเจียนได้รับมอบหมายหน้าที่จากเบื้องบนให้สังหารจื่อเซี่ย ผู้ที่เป็นทั้งลูกสาวของฮั้วจีและบุคคลที่เขาหลงรัก เพื่อแลกกับตำแหน่งในสรวงสวรรค์ และเทียนเผิง องค์รักษ์ของฮั้วจี ได้รับบัญชาการให้สืบหาข้อมูลของหงอคง ชะตากรรมทำให้ทั้งสามคนมาพานพบกันที่สำนักเทียนจิ และการพบครั้งนี้จะทำให้ชีวิตของทั้งสามคนเปลี่ยนไปโดยสิ้นเชิง

ตำนานบทใหม่ที่ยังไม่เคยถูกเล่าขาน เรื่องราวหงอคงแบบที่คุณไม่เคยรู้มาก่อน เนรมิตรทุนสร้างกว่า 1,200 ล้าน
หงอคง(เอ็ดดี้ เผิง)ผู้ดื้อรั้นและจองหอง ฮั้วจี(เฟยหง ยู่)แม่ทัพผู้ยิ่งใหญ่จากสรวงสวรรค์จึงต้องการกำจัดเขา แต่หงอคงได้รับการช่วยชีวิตจากพระโพธิ์สัตว์ หงอคงจึงกลายเป็นศิษย์ของเขา ขณะเดียวกัน หยางเจียน(ชอว์น ยู)ได้รับโอกาสที่จะเป็นเทพเจ้าผู้ยิ่งใหญ่แต่เขาจำเป็นต้องสังหารจื่อเซี่ย(หนี หนี่)ลูกสาวศัตรูของจักรพรรดิแห่งสรวงสวรรค์แม้ว่าเธอเป็นคนที่เขาตกหลุมรัก ส่วนเทียนเผิง(โอโฮ โอ)องครักษ์ของฮั้วจีก็ได้รับคำสั่งให้ออกตามหาหงอคง
เตรียมพบกับหงอคงแบบที่คุณไม่เคยเห็นมาก่อนในโรงภาพยนตร์ทั้งในระบบปกติ 4DX และ Screen X

 

Format : Matroska
File size : 5.63 GiB
Duration : 2 h 2 min
Overall bit rate : 6 556 kb/s
Movie name : WuKong.2017.2160p.4K.WEB-DL.H264.AC-3.ThaiRong_CpT@CtHts

Video
ID : 1
Format : AVC
Format/Info : Advanced Video Codec
Format profile : High@L5.1
Format settings, CABAC : Yes
Format settings, RefFrames : 3 frames
Codec ID : V_MPEG4/ISO/AVC
Duration : 2 h 2 min
Bit rate : 6 077 kb/s
Width : 3 840 pixels
Height : 1 608 pixels
Display aspect ratio : 2.40:1
Frame rate mode : Constant
Frame rate : 24.000 FPS
Color space : YUV
Chroma subsampling : 4:2:0
Bit depth : 8 bits
Scan type : Progressive
Bits/(Pixel*Frame) : 0.041
Stream size : 5.22 GiB (93%)
Title : WuKong.2017.2160p.4K.WEB-DL.H264.AC-3.ThaiRong_CpT@CtHts
Writing library : qiyi.com vtc-test
Language : Chinese
Default : Yes
Forced : No
Color range : Limited
Color primaries : BT.709
Transfer characteristics : BT.709
Matrix coefficients : BT.709

Audio #1
ID : 2
Format : AC-3
Format/Info : Audio Coding 3
Format settings, Endianness : Big
Codec ID : A_AC3
Duration : 2 h 2 min
Bit rate mode : Constant
Bit rate : 192 kb/s
Channel(s) : 2 channels
Channel positions : Front: L R
Sampling rate : 48.0 kHz
Frame rate : 31.250 FPS (1536 SPF)
Bit depth : 16 bits
Compression mode : Lossy
Stream size : 169 MiB (3%)
Title : AC-3 ThaiRong 2.0 By ~Mr.Captain~
Language : Thai
Service kind : Complete Main
Default : Yes
Forced : Yes

Audio #2
ID : 3
Format : AAC
Format/Info : Advanced Audio Codec
Format profile : LC
Codec ID : A_AAC
Duration : 2 h 2 min
Bit rate : 221 kb/s
Channel(s) : 2 channels
Channel positions : Front: L R
Sampling rate : 48.0 kHz
Frame rate : 46.875 FPS (1024 SPF)
Compression mode : Lossy
Stream size : 195 MiB (3%)
Title : AAC ThaiRong 2.0 By ~Mr.Captain~
Language : Thai
Default : No
Forced : No

Audio #3
ID : 4
Format : AAC
Format/Info : Advanced Audio Codec
Format profile : HE-AAC / LC
Codec ID : A_AAC
Duration : 2 h 2 min
Bit rate : 62.7 kb/s
Channel(s) : 2 channels
Channel positions : Front: L R
Sampling rate : 44.1 kHz / 22.05 kHz
Frame rate : 21.533 FPS (1024 SPF)
Compression mode : Lossy
Stream size : 55.1 MiB (1%)
Title : Chinese 2.0
Language : Chinese
Default : No
Forced : No







WuKong.2017.2160p.4K.WEB-DL.H264.AC-3.ThaiRong_CpT@CtHts.mkv – 6041256201

Facebook Comments

About the author

one4up .com

Add Comment

Click here to post a comment

Posts

HD Blu-Ray 1080p

[ฝรั่ง]-ใหม่ร้อนๆ! +[* เสียงไทยมาสเตอร์ *] Sleepless (2017) : คืนเดือด คนระห่ำ [*CtHts@SiamBIT*] • [พากย์ไทย มาสเตอร์ + เสียงอังกฤษ DTS] • [บรรยาย อังกฤษ] • [เสียงไทย MASTER] • [ เล็กพริกขี้หนู 1080p HQ ] Or *• ไฟล์เล็ก 1080p คุณภาพสูง

Advertisement