Mini HD Blu-Ray 1080p หนังซูม

[ฝรั่ง] – [เมื่อฝรั่งอยากลองดีกับผีไทย] Ghost House (2017) มันอยู่ในศาล 1080p.WEB-DL.DD5.1.H264-FGT [Rip]-[Soundtrack Sub ENG]

หนังเป็นเรื่องราวของจิมและจูลี่ คู่รักชาวอเมริกันที่เดินทางมาฮันนีมูนที่เมืองไทย จูลี่หลงใหลและชอบถ่ายรูปศาลพระภูมิเป็นพิเศษ แต่เมื่อทั้งคู่ตามไปดูศาลพระภูมิที่สุสานศาลพระภูมิ ร้างกลางป่าลึกก็ต้องพบกับความหลอนเพราะจูลี่ไปนำบาง สิ่งกลับมาด้วย จิมจึงต้องหาทางล้างอาถรรพ์ให้เธอก่อนที่ทุกอย่างจะส ายเกินไป
หนังเป็นผลงานกำกับของริชาร์ด แรกส์เดล นำแสดงโดยสเก๊าท์ เทย์เลอร์-คอมป์ตัน จาก Halloween II และ เจมส์ แลนดรี เฮย์เบิร์ต จาก Gangster Squad มีกำหนดฉายในบ้านเรา 17 สิงหาคมนี้

General
Ghost.House.2017.1080p.WEB-DL.DD5.1.H264-FGT.mkv
Format : Matroska
Format version : Version 4 / Version 2
File size : 3.48 GiB
Duration : 1 h 39 min
Overall bit rate : 4 980 kb/s
Movie name : Ghost.House.2017.1080p.WEB-DL.DD5.1.H264-FGT
Encoded date : UTC 2017-08-25 05:09:52
Writing application : mkvmerge v14.0.0 ( Flow ) 64bit
Writing library : libebml v1.3.4 + libmatroska v1.4.5
Cover : Yes
Attachments : cover_land.jpg / small_cover.jpg / small_cover_land.jpg / cover.jpg

Video
ID : 1
Format : AVC
Format/Info : Advanced Video Codec
Format settings, CABAC : Yes
Format settings, ReFrames : 5 frames
Codec ID : V_MPEG4/ISO/AVC
Duration : 1 h 39 min
Bit rate : 4 497 kb/s
Width : 1 920 pixels
Height : 792 pixels
Display aspect ratio : 2.40:1
Frame rate mode : Constant
Frame rate : 23.976 (24000/1001) FPS
Color space : YUV
Chroma subsampling : 4:2:0
Bit depth : 8 bits
Scan type : Progressive
Bits/(Pixel*Frame) : 0.123
Stream size : 3.14 GiB (90%)
Title : Ghost.House.2017.1080p.WEB-DL.DD5.1.H264-FGT
Language : English
Default : Yes
Forced : No
Color range : Limited
Color primaries : BT.709
Transfer characteristics : BT.709
Matrix coefficients : BT.709

Audio
ID : 2
Format : AC-3
Format/Info : Audio Coding 3
Format settings, Endianness : Big
Codec ID : A_AC3
Duration : 1 h 39 min
Bit rate mode : Constant
Bit rate : 384 kb/s
Channel(s) : 6 channels
Channel positions : Front: L C R, Side: L R, LFE
Sampling rate : 48.0 kHz
Frame rate : 31.250 FPS (1536 spf)
Bit depth : 16 bits
Compression mode : Lossy
Delay relative to video : -42 ms
Stream size : 274 MiB (8%)
Title : Ghost.House.2017.1080p.WEB-DL.DD5.1.H264-FGT
Language : English
Service kind : Complete Main
Default : Yes
Forced : No

Text
ID : 3
Format : UTF-8
Codec ID : S_TEXT/UTF8
Codec ID/Info : UTF-8 Plain Text
Language : English
Default : Yes
Forced : No

Menu
00:00:00.000 : en:01
00:05:59.000 : en:02
00:12:52.000 : en:03
00:18:38.000 : en:04
00:25:00.000 : en:05
00:32:23.000 : en:06
00:38:50.000 : en:07
00:44:08.000 : en:08
00:50:23.000 : en:09
00:57:12.000 : en:10
01:04:00.000 : en:11
01:09:28.000 : en:12
01:15:46.000 : en:13
01:22:46.000 : en:14
01:27:37.000 : en:15
01:34:44.000 : en:16


Download: cornfile
http://cornfile.com/u65iqp92btul

Facebook Comments

About the author

one4up .com

Add Comment

Click here to post a comment

Featured

Posts

HD Blu-Ray 1080p

[ฝรั่ง]-ใหม่ร้อนๆ! +[* เสียงไทยมาสเตอร์ *] Sleepless (2017) : คืนเดือด คนระห่ำ [*CtHts@SiamBIT*] • [พากย์ไทย มาสเตอร์ + เสียงอังกฤษ DTS] • [บรรยาย อังกฤษ] • [เสียงไทย MASTER] • [ เล็กพริกขี้หนู 1080p HQ ] Or *• ไฟล์เล็ก 1080p คุณภาพสูง

Advertisement