DVD Master

[DVDRip] Mr.Hurt (2017) มิสเตอร์เฮิร์ท มือวางอันดับเจ็บ [พากย์ไทย 5.1]

Mr. Hurt เรื่องราวของ “ดอน สีชัง” (ซันนี่) นักเทนนิสซูเปอร์สตาร์หนุ่ม ที่ฟอร์มหลุดชนิดเสียท่า (หรือจะเสียหมา จนเสียหลัก) เพราะบาดเจ็บจากความรักของ “แอนนา” (มารี) ดาราสาวสวย ที่ถูกร็อกเกอร์หนุ่มมาดเข้มอย่าง จิมมี่ เดอะร็อกเก็ต (เผือก) เข้ามาแย่งชิงพื้นที่หัวใจ กระทั่งดอน สีชัง ได้รับความช่วยเหลือจาก ดิว เพื่อนหญิงในวัยเด็กที่เข้ามาร่วมภารกิจพิชิต ความเฮิร์ทต่อความรักของดอน และศัตรูหัวใจอย่างจิมมี่ ผลลัพธ์จะเป็นอย่างไร
Mr.Hurt.2017.DVDRip[load2up.com].mkv
Format : Matroska
Format version : Version 2
File size : 2.11 GiB
Duration : 2 h 3 min
Overall bit rate : 2 456 kb/s
Movie name : DVD.Title4
Writing application : HandBrake 0.9.9
Writing library : libmkv 0.6.5

Video
ID : 1
Format : AVC
Format/Info : Advanced Video Codec
Format profile : High@L3
Format settings, CABAC : Yes
Format settings, ReFrames : 4 frames
Codec ID : V_MPEG4/ISO/AVC
Duration : 2 h 3 min
Bit rate : 2 002 kb/s
Width : 720 pixels
Height : 300 pixels
Display aspect ratio : 2.40:1
Frame rate mode : Constant
Frame rate : 25.000 FPS
Color space : YUV
Chroma subsampling : 4:2:0
Bit depth : 8 bits
Scan type : Progressive
Bits/(Pixel*Frame) : 0.371
Stream size : 1.68 GiB (80%)
Writing library : x264 core 130 r2273 b3065e6
Language : English
Default : Yes
Forced : No
Color range : Limited
Color primaries : BT.601 PAL
Transfer characteristics : BT.709
Matrix coefficients : BT.601

Audio
ID : 2
Format : AC-3
Format/Info : Audio Coding 3
Format settings, Endianness : Big
Codec ID : A_AC3
Duration : 2 h 3 min
Bit rate mode : Constant
Bit rate : 448 kb/s
Channel(s) : 6 channels
Channel positions : Front: L C R, Side: L R, LFE
Sampling rate : 48.0 kHz
Frame rate : 31.250 FPS (1536 spf)
Bit depth : 16 bits
Compression mode : Lossy
Stream size : 394 MiB (18%)
Service kind : Complete Main
Default : Yes
Forced : No

 

Mr.Hurt.2017.DVDRip[load2up.com].mkv – 2267307161

Facebook Comments

Posts

Advertisement