ซีรีย์ฝรั่ง

[ฝรั่ง] • Game of Thrones Season 7 (Episode 01 : Dragonstone) • [1080p] [Sound Thai AC-3/AAC 5.1 + English DD5.1] • [Sub Thai + English] • (ฉบับเต็มไม่มีตัด ไม่เซ็นเซอร์) • [ซับไทยจาก HBO คมชัดแบบ PGS+IDX 1080p] • [พากย์ไทย]

หมายเหตุ :
เสียงไทยมาสเตอร์จาก HBOThai 2.0 Modified 5.1!
&
ขอบคุณซับคุณภาพแจ่มๆจากพี่ชายสุดหล่อ :
vicvicky

••• 1080p.WEB-DL.DDP5.1.x264_CpT@CtHts •••
พากย์ไทย AC-3 และ AAC 5.1 + เสียงอังกฤษ DD5.1
ซับไทยจาก HBO คมชัดแบบ PGS+IDX 1080p

มหาศึกชิงบัลลังก์ (อังกฤษ: Game of Thrones) เป็นภาพยนตร์ชุดทางโทรทัศน์แนวแฟนตาซีย้อนยุคของสถาน ีโทรทัศน์เอชบีโอ สร้างสรรค์โดยเดวิด เบนิออฟฟ์ และดี. บี. ไวส์ ดัดแปลงจากหนังสือเล่มที่หนึ่งของชุดหนังสือนิยายขาย ดีของจอร์จ อาร์. อาร์. มาร์ติน ชุด มหาศึกชิงบัลลังก์ เรื่อง เกมล่าบัลลังก์ ฉายครั้งแรกในสหรัฐอเมริกา 17 เมษายน 2554 ภาพยนตร์ชุดนี้ได้รับเสียงตอบรับอย่างดีมาก มีผู้ติดตามเป็นจำนวนมาก และได้รับการอนุมัติให้ทำฤดูกาลที่ 2 ต่อจากฤดูกาลแรก ในวันที่ 19 เมษายน 2554 สองวันหลังจากฉายตอนแรก

 

Format : Matroska
File size : 3.90 GiB
Duration : 1 h 1 min
Overall bit rate : 9 073 kb/s
Movie name : Game.of.Thrones.S07E01.Dragonstone.1080p.WEB-DL.DDP5.1.x264_CpT@CtHts

Video
ID : 1
Format : AVC
Format/Info : Advanced Video Codec
Format profile : High@L4
Format settings, CABAC : Yes
Format settings, RefFrames : 4 frames
Codec ID : V_MPEG4/ISO/AVC
Duration : 1 h 1 min
Bit rate mode : Variable
Bit rate : 7 524 kb/s
Maximum bit rate : 15.0 Mb/s
Width : 1 920 pixels
Height : 1 080 pixels
Display aspect ratio : 16:9
Frame rate mode : Constant
Frame rate : 23.976 (24000/1001) FPS
Color space : YUV
Chroma subsampling : 4:2:0
Bit depth : 8 bits
Scan type : Progressive
Bits/(Pixel*Frame) : 0.151
Stream size : 3.23 GiB (83%)
Title : Game.of.Thrones.S07E01.Dragonstone.1080p.WEB-DL.DDP5.1.x264_CpT@CtHts
Language : English
Default : Yes
Forced : No
Color range : Limited
Color primaries : BT.709
Transfer characteristics : BT.709
Matrix coefficients : BT.709

Audio #1
ID : 2
Format : AC-3
Format/Info : Audio Coding 3
Format settings, Endianness : Big
Codec ID : A_AC3
Duration : 1 h 1 min
Bit rate mode : Constant
Bit rate : 448 kb/s
Channel(s) : 6 channels
Channel positions : Front: L C R, Side: L R, LFE
Sampling rate : 48.0 kHz
Frame rate : 31.250 FPS (1536 SPF)
Bit depth : 16 bits
Compression mode : Lossy
Stream size : 197 MiB (5%)
Title : AC-3 Thai Modified 5.1 From Thai Master HBO 2.0
Language : Thai
Service kind : Complete Main
Default : Yes
Forced : No

Audio #2
ID : 3
Format : AAC
Format/Info : Advanced Audio Codec
Format profile : LC
Codec ID : A_AAC
Duration : 1 h 1 min
Bit rate : 384 kb/s
Channel(s) : 6 channels
Channel positions : Front: L C R, Side: L R, LFE
Sampling rate : 48.0 kHz
Frame rate : 46.875 FPS (1024 SPF)
Compression mode : Lossy
Stream size : 169 MiB (4%)
Title : AAC Thai Modified 5.1 From Thai Master HBO 2.0
Language : Thai
Default : No
Forced : No

Audio #3
ID : 4
Format : E-AC-3
Format/Info : Enhanced Audio Coding 3
Format settings, Endianness : Big
Codec ID : A_EAC3
Duration : 1 h 1 min
Bit rate mode : Constant
Bit rate : 640 kb/s
Channel(s) : 6 channels
Channel positions : Front: L C R, Side: L R, LFE
Sampling rate : 48.0 kHz
Frame rate : 187.500 FPS (256 SPF)
Compression mode : Lossy
Delay relative to video : 23 ms
Stream size : 281 MiB (7%)
Title : DD5.1
Language : English
Service kind : Complete Main
Default : No
Forced : No

Text #1
ID : 5
Format : VobSub
Codec ID : S_VOBSUB
Codec ID/Info : Picture based subtitle format used on DVDs
Duration : 56 min 56 s
Bit rate : 6 424 b/s
Count of elements : 624
Stream size : 2.62 MiB (0%)
Title : Tahoma 1080p From HBO By vicvicky
Language : Thai
Default : Yes
Forced : No

Text #2
ID : 6
Format : VobSub
Muxing mode : zlib
Codec ID : S_VOBSUB
Codec ID/Info : Picture based subtitle format used on DVDs
Duration : 56 min 56 s
Bit rate : 5 748 b/s
Count of elements : 624
Stream size : 2.34 MiB (0%)
Title : Angsna 1080p From HBO By vicvicky
Language : Thai
Default : No
Forced : No

Text #3
ID : 7
Format : PGS
Codec ID : S_HDMV/PGS
Codec ID/Info : Picture based subtitle format used on BDs/HD-DVDs
Duration : 56 min 56 s
Bit rate : 28.7 kb/s
Count of elements : 1248
Stream size : 11.7 MiB (0%)
Title : Tahoma PGS From HBO By vicvicky
Language : Thai
Default : No
Forced : No

Text #4
ID : 8
Format : PGS
Codec ID : S_HDMV/PGS
Codec ID/Info : Picture based subtitle format used on BDs/HD-DVDs
Duration : 56 min 56 s
Bit rate : 38.6 kb/s
Count of elements : 1248
Stream size : 15.7 MiB (0%)
Title : Angsna PGS From HBO By vicvicky
Language : Thai
Default : No
Forced : No

Text #5
ID : 9
Format : UTF-8
Codec ID : S_TEXT/UTF8
Codec ID/Info : UTF-8 Plain Text
Duration : 1 h 1 min
Bit rate : 55 b/s
Count of elements : 758
Stream size : 24.9 KiB (0%)
Title : English
Language : English
Default : No
Forced : No

Menu
00:00:00.000 : en:TV Rating
00:00:02.327 : en:Previously On
00:02:28.327 : en:Studio Logo
00:02:33.327 : en:Walder Frey holds a feast for his family The Twins
00:06:26.327 : en:Opening Credits
00:08:13.327 : en:Bran and Meera arrive at the Wall The Wall
00:11:40.327 : en:Jon prepares his men for the coming Winter Winterfell
00:16:40.327 : en:Jon receives a message from King s Landing Winterfell
00:19:30.327 : en:Jaime tells Cersei they need allies King s Landing
00:25:08.327 : en:Euron makes Cersei an offer King s Landing
00:29:06.327 : en:Sam talks with Archmaester Marwyn the White Walkers Oldtown
00:35:59.327 : en:Littlefinger asks Sansa if she is happy Winterfell
00:38:07.327 : en:Arya runs into a group of soldiers The Riverlands
00:42:16.327 : en:The Brotherhood Without Banners travel north The North
00:51:31.327 : en:Sam discovers something in a book Oldtown
00:54:10.327 : enaenerys comes home Dragonstone
00:59:46.327 : en:End Credits
01:01:04.327 : en:Next On
01:01:24.327 : en:Online Extra






 

Game.of.Thrones.S07E01.Dragonstone.1080p.WEB-DL.DDP5.1.x264_CpT@CtHts.mkv – 4182459632

Facebook Comments

About the author

one4up .com

Add Comment

Click here to post a comment

Featured

Posts

หนังซูม

[ฝรั่ง]-[ใหม่!ก่อนใคร] • [Zoom V.1] • [* อภิมหาหนังไซไฟถล่มโลกอีกเรื่องของ ดีน เดฟลิน *] • Geostorm (2017) : จีโอสตอร์ม เมฆาถล่มโลก • [* HDCAM.X264.ThaiRong2.0 CpT@CtHts *] • [*CtHts@SiamBIT*] • [พากย์ไทยโรง 2.0 + เสียงอังกฤษ 2.0] • [หนังซูม] • [พากย์ไทยโรง]

Mini HD Blu-Ray 1080p

[ฝรั่ง]-ใหม่ร้อนๆ! [* เล็กพริกขี้หนู 1080p Super HQ *] 2:22 (2017) / 2:22 เวลาเฉียดตาย [*CtHts@SiamBIT*] • [พากย์ไทย 5.1 + เสียงอังกฤษ DTS] • [บรรยายไทย + อังกฤษ] • [เสียงไทย + ซับไทย From MASTER +ซับ PGS คมชัด] *• ไฟล์เล็ก 1080p คุณภาพสูง! •*

หนังซูม

[ฝรั่ง]-ใหม่!!ร้อน • [ภาพชัดบรรยายเกาหลีฝัง] • [* หนังสยองขวัญกระแสแรงที่สุดของปี 2017! *] • It (2017) : อิท โผล่จาก • [720p] • [* KORSUB.HDRip.x264.AC-32.0.ThaiRong2.0 CpT@CtHts *] • [*CtHts@SiamBIT*] • [พากย์ไทยโรง 2.0 + เสียงอังกฤษ 2.0] • [บรรยายเกาหลีฝัง] • [Modified]-[พากย์ไทยโรง]

Advertisement