Boxset DVD CD HD Blu-ray Mini HD Blu-Ray 1080p

[ฝรั่ง]-[Mini-HD]-[ BoxSet 4 ภาค]-[** คมชัดสะใจ ทั้งภาพและเสียง + สำหรับนักสะสม กระหึ่มด้วยเสียง THAI DTS **] The Hunger Games 1-4 Quadrilogy (2012-2015) เดอะ ฮังเกอร์เกมส์ เกมล่าเกม ภาค 1-4 [Master] [1080p HQ.] [เสียงไทยมาสเตอร์ DTS + ENG DTS ] [บรรยายไทย + อังกฤษ] [เสียง + ซับ From BluRay MASTER : + ซับไทย PGS คมชัดถึงใจ][.MKV]-MiniBD.DTS.1080p. [Modified]-[พากย์ไทย บรรยายไทย]

The Hunger Games (2012) เกมล่าเกม
เนื้อเรื่องย่อ…
ในอนาคตสงครามทำให้โลกกลายเป็นยุคมืดอีกครั้ง ทั้ง 12 เขตตกอยู่ภายใต้การปกครองของ “แคปิตอล” ที่กำหนดให้ทั้ง 12 เขตจะต้องส่งเด็กผู้หญิงหนึ่งและเด็กผู้ชายหนึ่ง เข้าร่วม Hunger Games ที่มีกฏง่ายๆคือให้เด็กทั้ง 24 คนต่อสู้กันต่อหน้าทีวีจนเหลือผู้รอดเพียงคนเดียวทุก ปี เมื่อน้องสาวของ แคตนิส เอเวอร์ดีน (เจนนิเฟอร์ ลอว์เรนซ์) จากเขต 12 กลายเป็นผู้โชคร้ายคนล่าสุด เธอไม่มีทางเลือกนอกจากเสนอตัวเองแทน และต้องเดินทางไปเข้าร่วมเกมกับ พีตา เมลลาร์ก (จอช ฮัทเชอร์สัน) ตัวแทนจากเขตอีกคน โดยมี เกล (เลียม เฮมส์เวิร์ธ) เพื่อนสนิทของ แคทนิส ที่พยายามช่วยเธอจากเกมมรณะนี้… แคตนิส ต้องเลือกระหว่างมนุษยธรรมหรือการเอาตัวรอด ชีวิตหรือความรัก จุดมุ่งหมายเดียวก็คือการเอาชนะเกมล่าชีวิตเพื่อกลับ บ้าน
Complete name : D:หนัง1..The Hunger Games 1-4 Quadrilogy (2012-2015) เกมล่าเกม ภาค 1-41.The Hunger Games (2012) เกมล่าเกม ภาค 1The.Hunger.Games.2012.1080p.BluRay.DTS.x264-ThinmanSB.mkv
Format : Matroska
Format version : Version 4 / Version 2
File size : 4.53 GiB
Duration : 2h 22mn
Overall bit rate : 4 551 Kbps
Movie name : The.Hunger.Games.2012.1080p.BluRay.DTS.x264-ThinmanSB
Encoded date : UTC 2016-07-27 04:31:37
Writing application : mkvmerge v9.3.1 ( Mask Machine ) 64bit
Writing library : libebml v1.3.4 + libmatroska v1.4.5
DURATION : 02:11:33.101000000
NUMBER_OF_FRAMES : 2222
NUMBER_OF_BYTES : 14204710
_STATISTICS_WRITING_APP : mkvmerge v9.3.1 ( Mask Machine ) 64bit
_STATISTICS_WRITING_DATE_UTC : 2016-07-27 04:31:37
_STATISTICS_TAGS : BPS DURATION NUMBER_OF_FRAMES NUMBER_OF_BYTES

Video
ID : 1
Format : AVC
Format/Info : Advanced Video Codec
Format profile : High@L4.0
Format settings, CABAC : Yes
Format settings, ReFrames : 4 frames
Codec ID : V_MPEG4/ISO/AVC
Duration : 2h 22mn
Bit rate : 3 000 Kbps
Width : 1 920 pixels
Height : 800 pixels
Display aspect ratio : 2.40:1
Frame rate mode : Constant
Frame rate : 23.976 fps
Color space : YUV
Chroma subsampling : 4:2:0
Bit depth : 8 bits
Scan type : Progressive
Bits/(Pixel*Frame) : 0.081
Stream size : 2.93 GiB (65%)
Title : The.Hunger.Games.2012.1080p.BluRay.DTS.x264-ThinmanSB
Writing library : x264 core 120
Encoding settings : cabac=1 / ref=3 / deblock=1:0:0 / analyse=0x3:0x113 / me=umh / subme=10 / psy=1 / psy_rd=1.00:0.00 / mixed_ref=1 / me_range=32 / chroma_me=1 / trellis=2 / 8x8dct=1 / cqm=0 / deadzone=21,11 / fast_pskip=1 / chroma_qp_offset=-2 / threads=12 / sliced_threads=0 / nr=0 / decimate=1 / interlaced=0 / bluray_compat=0 / constrained_intra=0 / bframes=3 / b_pyramid=2 / b_adapt=2 / b_bias=0 / direct=1 / weightb=1 / open_gop=0 / weightp=2 / keyint=240 / keyint_min=24 / scenecut=40 / intra_refresh=0 / rc_lookahead=50 / rc=2pass / mbtree=1 / bitrate=3000 / ratetol=1.0 / qcomp=0.60 / qpmin=3 / qpmax=69 / qpstep=4 / cplxblur=20.0 / qblur=0.5 / ip_ratio=1.40 / aq=1:1.00
Language : English
Default : Yes
Forced : No
Color primaries : BT.709
Transfer characteristics : BT.709
Matrix coefficients : BT.709
Color range : Limited

Audio #1
ID : 2
Format : DTS
Format/Info : Digital Theater Systems
Mode : 16
Format settings, Endianness : Big
Codec ID : A_DTS
Duration : 2h 22mn
Bit rate mode : Constant
Bit rate : 768 Kbps
Channel(s) : 6 channels
Channel positions : Front: L C R, Side: L R, LFE
Sampling rate : 48.0 KHz
Bit depth : 24 bits
Compression mode : Lossy
Stream size : 783 MiB (17%)
Title : THAI DTS @768Kbps
Language : Thai
Default : Yes
Forced : No

Audio #2
ID : 3
Format : DTS
Format/Info : Digital Theater Systems
Mode : 16
Format settings, Endianness : Big
Codec ID : A_DTS
Duration : 2h 22mn
Bit rate mode : Constant
Bit rate : 755 Kbps
Channel(s) : 6 channels
Channel positions : Front: L C R, Side: L R, LFE
Sampling rate : 48.0 KHz
Bit depth : 24 bits
Compression mode : Lossy
Stream size : 769 MiB (17%)
Title : ENGLISH DTS @755Kbps
Language : English
Default : No
Forced : No

Text #1
ID : 4
Format : VobSub
Codec ID : S_VOBSUB
Codec ID/Info : The same subtitle format used on DVDs
Title : TH 480P
Language : Thai
Default : No
Forced : No

Text #2
ID : 5
Format : VobSub
Codec ID : S_VOBSUB
Codec ID/Info : The same subtitle format used on DVDs
Title : TH 1080P
Language : Thai
Default : No
Forced : No

Text #3
ID : 6
Format : VobSub
Codec ID : S_VOBSUB
Codec ID/Info : The same subtitle format used on DVDs
Title : EN 1080P
Language : English
Default : No
Forced : No

Text #4
ID : 7
Format : PGS
Codec ID : S_HDMV/PGS
Codec ID/Info : The same subtitle format used on BDs/HD-DVDs
Title : TH PGS
Language : Thai
Default : No
Forced : No

Text #5
ID : 8
Format : PGS
Codec ID : S_HDMV/PGS
Codec ID/Info : The same subtitle format used on BDs/HD-DVDs
Title : EN PGS
Language : English
Default : Yes
Forced : No


Forced                                   : No



The Hunger Games Catching Fire (2013) เกมล่าเกม 2
เรื่องย่อ…
Catching Fire เริ่มต้นเมื่อ แคทนิส (เจนนิเฟอร์ ลอว์เรนซ์) และ พีตา (จอช ฮัทเชอร์สัน) เดินทางกลับสู่เขต 12 ในฐานะผู้ชนะเกมล่าชีวิตครั้งที่ 74 อย่างไรก็ตามประธานาธิบดีสโนว์ ที่พบว่าถูกกลุ่มคนเล็ก ๆ ท้าทายอำนาจ ตัดสินใจที่จะจัดเกมล่าชีวิตครั้งที่ 75 ด้วยการนำอดีตผู้ชนะจากทั้ง 12 เขตมาต่อสู้กัน ซึ่งก็รวมถึงสองตัวแทนคนสำคัญ ฟินนิก โอแดร์ (แซม คาฟลิน) และ โจแฮนน่า เมสัน (จีน่า มาโลน) ซึ่งการแข่งขันครั้งนี้เอง ก็กลายเป็นชนวนครั้งสำคัญที่จะเปลี่ยนแปลงพาเน็มไปตล อดกาล
Complete name                            : D:หนัง1..The Hunger Games 1-4 Quadrilogy (2012-2015)  เกมล่าเกม ภาค 1-42.The Hunger Games Catching Fire (2013) เกมล่าเกม 2 แคชชิ่งไฟเออร์{MINI-HQ}The.Hunger.Games.Catching.Fire.2013.1080p.BrRip.Thai DTS_by NongZEZA@CtHts.mkv
Format                                   : Matroska
Format version                           : Version 4 / Version 2
File size                                : 4.32 GiB
Duration                                 : 2h 26mn
Overall bit rate                         : 4 227 Kbps
Movie name                               : [HQ] The.Hunger.Games.Catching.Fire.2013.IMAX.EDITION.1080p.BrRip.Thai DTS_by NongZEZA@CtHts
Encoded date                             : UTC 2010-02-22 21:41:31
Writing application                      : mkvmerge v5.9.0 ( On The Loose ) built on Dec  9 2012 15:37:01
Writing library                          : libebml v1.3.0 + libmatroska v1.4.0

Video
ID                                       : 1
Format                                   : AVC
Format/Info                              : Advanced Video Codec
Format profile                           : High@L4.0
Format settings, CABAC                   : Yes
Format settings, ReFrames                : 4 frames
Codec ID                                 : V_MPEG4/ISO/AVC
Duration                                 : 2h 26mn
Bit rate                                 : 2 609 Kbps
Width                                    : 1 920 pixels
Height                                   : 800 pixels
Display aspect ratio                     : 2.40:1
Frame rate mode                          : Constant
Frame rate                               : 23.976 fps
Color space                              : YUV
Chroma subsampling                       : 4:2:0
Bit depth                                : 8 bits
Scan type                                : Progressive
Bits/(Pixel*Frame)                       : 0.071
Stream size                              : 2.69 GiB (62%)
Title                                    : The.Hunger.Games.Catching.Fire.2013.IMAX.EDITION.1080p.BrRip.Thai DTS_by NongZEZA@CtHts
Writing library                          : x264 core 120
Encoding settings                        : cabac=1 / ref=3 / deblock=1:0:0 / analyse=0x3:0x113 / me=umh / subme=10 / psy=1 / psy_rd=1.00:0.00 / mixed_ref=1 / me_range=24 / chroma_me=1 / trellis=2 / 8x8dct=1 / cqm=0 / deadzone=21,11 / fast_pskip=1 / chroma_qp_offset=-2 / threads=12 / sliced_threads=0 / nr=0 / decimate=1 / interlaced=0 / bluray_compat=0 / constrained_intra=0 / bframes=3 / b_pyramid=2 / b_adapt=2 / b_bias=0 / direct=1 / weightb=1 / open_gop=0 / weightp=2 / keyint=240 / keyint_min=24 / scenecut=40 / intra_refresh=0 / rc_lookahead=50 / rc=2pass / mbtree=1 / bitrate=2609 / ratetol=1.0 / qcomp=0.60 / qpmin=3 / qpmax=69 / qpstep=4 / cplxblur=20.0 / qblur=0.5 / ip_ratio=1.40 / aq=1:1.00
Language                                 : Thai
Default                                  : Yes
Forced                                   : No
Color primaries                          : BT.709
Transfer characteristics                 : BT.709
Matrix coefficients                      : BT.709
Color range                              : Limited

Audio #1
ID                                       : 2
Format                                   : DTS
Format/Info                              : Digital Theater Systems
Mode                                     : 16
Format settings, Endianness              : Big
Codec ID                                 : A_DTS
Duration                                 : 2h 26mn
Bit rate mode                            : Constant
Bit rate                                 : 755 Kbps
Channel(s)                               : 6 channels
Channel positions                        : Front: L C R, Side: L R, LFE
Sampling rate                            : 48.0 KHz
Bit depth                                : 24 bits
Compression mode                         : Lossy
Stream size                              : 789 MiB (18%)
Title                                    : Thai DTS by Junjao
Language                                 : Thai
Default                                  : Yes
Forced                                   : Yes

Audio #2
ID                                       : 3
Format                                   : DTS
Format/Info                              : Digital Theater Systems
Mode                                     : 16
Format settings, Endianness              : Big
Codec ID                                 : A_DTS
Duration                                 : 2h 26mn
Bit rate mode                            : Constant
Bit rate                                 : 755 Kbps
Channel(s)                               : 6 channels
Channel positions                        : Front: L C R, Side: L R, LFE
Sampling rate                            : 48.0 KHz
Bit depth                                : 24 bits
Compression mode                         : Lossy
Stream size                              : 789 MiB (18%)
Title                                    : English DTS
Language                                 : English
Default                                  : No
Forced                                   : No

Text #1
ID                                       : 4
Format                                   : VobSub
Codec ID                                 : S_VOBSUB
Codec ID/Info                            : The same subtitle format used on DVDs
Title                                    : Thai 480p DVD Master
Language                                 : Thai
Default                                  : No
Forced                                   : No

Text #2
ID                                       : 5
Format                                   : VobSub
Codec ID                                 : S_VOBSUB
Codec ID/Info                            : The same subtitle format used on DVDs
Title                                    : Thai 720p
Language                                 : Thai
Default                                  : No
Forced                                   : No

Text #3
ID                                       : 6
Format                                   : VobSub
Codec ID                                 : S_VOBSUB
Codec ID/Info                            : The same subtitle format used on DVDs
Title                                    : Thai 1080p
Language                                 : Thai
Default                                  : Yes
Forced                                   : Yes

Text #4
ID                                       : 7
Format                                   : VobSub
Codec ID                                 : S_VOBSUB
Codec ID/Info                            : The same subtitle format used on DVDs
Title                                    : Thai 1080p Yellow
Language                                 : Thai
Default                                  : No
Forced                                   : No

Text #5
ID                                       : 8
Format                                   : VobSub
Codec ID                                 : S_VOBSUB
Codec ID/Info                            : The same subtitle format used on DVDs
Title                                    : Thai 1080p Out
Language                                 : Thai
Default                                  : No
Forced                                   : No

Text #6
ID                                       : 9
Format                                   : VobSub
Codec ID                                 : S_VOBSUB
Codec ID/Info                            : The same subtitle format used on DVDs
Title                                    : Thai 1080p BIG
Language                                 : Thai
Default                                  : No
Forced                                   : No

Text #7
ID                                       : 10
Format                                   : VobSub
Codec ID                                 : S_VOBSUB
Codec ID/Info                            : The same subtitle format used on DVDs
Title                                    : Thai 1080p Out [BIG]
Language                                 : Thai
Default                                  : No
Forced                                   : No

Text #8
ID                                       : 11
Format                                   : PGS
Codec ID                                 : S_HDMV/PGS
Codec ID/Info                            : The same subtitle format used on BDs/HD-DVDs
Title                                    : Thai PGS
Language                                 : Thai
Default                                  : No
Forced                                   : No

Text #9
ID                                       : 12
Format                                   : PGS
Codec ID                                 : S_HDMV/PGS
Codec ID/Info                            : The same subtitle format used on BDs/HD-DVDs
Title                                    : Thai PGS Yellow
Language                                 : Thai
Default                                  : No
Forced                                   : No

Text #10
ID                                       : 13
Format                                   : PGS
Codec ID                                 : S_HDMV/PGS
Codec ID/Info                            : The same subtitle format used on BDs/HD-DVDs
Title                                    : Thai PGS Out
Language                                 : Thai
Default                                  : No
Forced                                   : No

Text #11
ID                                       : 14
Format                                   : UTF-8
Codec ID                                 : S_TEXT/UTF8
Codec ID/Info                            : UTF-8 Plain Text
Title                                    : English
Language                                 : English
Default                                  : No
Forced                                   : No
                                                                                                                                         The Hunger Games Mockingjay Part 1 (2014) เกมล่าเกม ม็อกกิ้งเจย์ พาร์ท 1
เรื่องย่อ….
ภายหลังจากการแข่งขันอันเข้มข้นใน Quarter Quell ครั้งล่าสุด ที่สาวน้อยผู้มากับไฟ แคทนิส
เอเวอร์ดีนได้ก่อให้เกิดความเปลี่ยนแปลงครั้งใหญ่หลว งขึ้น และมันได้นำมาซึ่งจุดเริ่มต้นที่แท้จริงของสงครามที่ แท้จริง
ที่เธอจะไม่ยอมสยบต่อแคปิตอลอีกต่อไป โดยมีแคทนิสในฐานะสัญลักษณ์ของ “ม็อคกิ้งเจย์” จะเป็นผู้นำในการลุกขึ้นต่อต้านครั้งนี้
ร่วมกับ เกล เพื่อนรักจากเขต 12, ฟินนิค เพื่อนร่วมเกมจาก Quarter Quell และพลูตาร์ช เกมเมคเกอร์ที่ขอหักหลังแคปิตอล
แต่ทุกอย่างไม่ได้ง่ายอย่างที่คิด เมื่อชายหนุ่มที่เคยต่อสู้เคียงข้างเธออย่างพีต้า เมลลาร์คต้องถูกแคปิตอลจับเป็นตัวประกัน
และประธานาธิบดีสโนว์ก็ดูเหมือนจะไม่ยอมอ่อนข้อให้อี กต่อไปในสงครามครั้งนี้ แคทนิส หรือ แคปิตอล ใครจะกุมชะตาแห่งพาเน็ม
Complete name                            : D:หนัง1..The Hunger Games 1-4 Quadrilogy (2012-2015)  เกมล่าเกม ภาค 1-43.The Hunger Games Mockingjay  Part 1 (2014) เกมล่าเกม  ภาค 3The.Hunger.Games.Mockingjay.Part.1.2014.1080p.BluRay.DTS.x264-ThinmanSB.mkv
Format                                   : Matroska
Format version                           : Version 4 / Version 2
File size                                : 4.48 GiB
Duration                                 : 2h 2mn
Overall bit rate mode                    : Variable
Overall bit rate                         : 5 220 Kbps
Movie name                               : The.Hunger.Games.Mockingjay.Part.1.2014.1080p.BluRay.DTS.x264-ThinmanSB
Encoded date                             : UTC 2016-07-27 05:29:54
Writing application                      : mkvmerge v9.3.1 ( Mask Machine ) 64bit
Writing library                          : libebml v1.3.4 + libmatroska v1.4.5
DURATION                                 : 01:49:47.455000000
NUMBER_OF_FRAMES                         : 2539
NUMBER_OF_BYTES                          : 8686729
_STATISTICS_WRITING_APP                  : mkvmerge v9.3.1 ( Mask Machine ) 64bit
_STATISTICS_WRITING_DATE_UTC             : 2016-07-27 05:29:54
_STATISTICS_TAGS                         : BPS DURATION NUMBER_OF_FRAMES NUMBER_OF_BYTES

Video
ID                                       : 1
Format                                   : AVC
Format/Info                              : Advanced Video Codec
Format profile                           : High@L4.1
Format settings, CABAC                   : Yes
Format settings, ReFrames                : 4 frames
Codec ID                                 : V_MPEG4/ISO/AVC
Duration                                 : 2h 2mn
Bit rate mode                            : Variable
Bit rate                                 : 3 680 Kbps
Maximum bit rate                         : 100.0 Mbps
Width                                    : 1 920 pixels
Height                                   : 800 pixels
Display aspect ratio                     : 2.40:1
Frame rate mode                          : Constant
Frame rate                               : 23.976 fps
Color space                              : YUV
Chroma subsampling                       : 4:2:0
Bit depth                                : 8 bits
Scan type                                : Progressive
Bits/(Pixel*Frame)                       : 0.100
Stream size                              : 3.10 GiB (69%)
Title                                    : The.Hunger.Games.Mockingjay.Part.1.2014.1080p.BluRay.DTS.x264-ThinmanSB
Writing library                          : x264 core 130 r2273 b3065e6
Encoding settings                        : cabac=1 / ref=4 / deblock=1:0:0 / analyse=0x3:0x133 / me=umh / subme=11 / psy=1 / psy_rd=1.00:0.15 / mixed_ref=1 / me_range=64 / chroma_me=1 / trellis=2 / 8x8dct=1 / cqm=0 / deadzone=21,11 / fast_pskip=1 / chroma_qp_offset=-3 / threads=16 / lookahead_threads=1 / sliced_threads=0 / nr=0 / decimate=1 / interlaced=0 / bluray_compat=0 / constrained_intra=0 / bframes=4 / b_pyramid=2 / b_adapt=2 / b_bias=0 / direct=3 / weightb=1 / open_gop=0 / weightp=2 / keyint=250 / keyint_min=23 / scenecut=40 / intra_refresh=0 / rc_lookahead=100 / rc=2pass / mbtree=1 / bitrate=3680 / ratetol=1.0 / qcomp=0.60 / qpmin=0 / qpmax=69 / qpstep=4 / cplxblur=20.0 / qblur=0.5 / vbv_maxrate=99999 / vbv_bufsize=99999 / nal_hrd=vbr / ip_ratio=1.40 / aq=1:1.00
Language                                 : English
Default                                  : Yes
Forced                                   : No
DURATION                                 : 02:02:50.417000000
NUMBER_OF_FRAMES                         : 176713
NUMBER_OF_BYTES                          : 3390503701
_STATISTICS_WRITING_APP                  : mkvmerge v9.3.1 ( Mask Machine ) 64bit
_STATISTICS_WRITING_DATE_UTC             : 2016-07-27 05:29:54
_STATISTICS_TAGS                         : BPS DURATION NUMBER_OF_FRAMES NUMBER_OF_BYTES

Audio #1
ID                                       : 2
Format                                   : DTS
Format/Info                              : Digital Theater Systems
Mode                                     : 16
Format settings, Endianness              : Big
Codec ID                                 : A_DTS
Duration                                 : 2h 2mn
Bit rate mode                            : Constant
Bit rate                                 : 755 Kbps
Channel(s)                               : 6 channels
Channel positions                        : Front: L C R, Side: L R, LFE
Sampling rate                            : 48.0 KHz
Bit depth                                : 24 bits
Compression mode                         : Lossy
Delay relative to video                  : 6ms
Stream size                              : 663 MiB (14%)
Title                                    : THAI DTS @755Kbps
Language                                 : Thai
Default                                  : Yes
Forced                                   : No

Audio #2
ID                                       : 3
Format                                   : DTS
Format/Info                              : Digital Theater Systems
Mode                                     : 16
Format settings, Endianness              : Big
Codec ID                                 : A_DTS
Duration                                 : 2h 2mn
Bit rate mode                            : Constant
Bit rate                                 : 755 Kbps
Channel(s)                               : 6 channels
Channel positions                        : Front: L C R, Side: L R, LFE
Sampling rate                            : 48.0 KHz
Bit depth                                : 24 bits
Compression mode                         : Lossy
Stream size                              : 663 MiB (14%)
Title                                    : ENGLISH DTS @755Kbps
Language                                 : English
Default                                  : No
Forced                                   : No

Text #1
ID                                       : 4
Format                                   : VobSub
Codec ID                                 : S_VOBSUB
Codec ID/Info                            : The same subtitle format used on DVDs
Title                                    : TH 480P
Language                                 : Thai
Default                                  : No
Forced                                   : No

Text #2
ID                                       : 5
Format                                   : VobSub
Codec ID                                 : S_VOBSUB
Codec ID/Info                            : The same subtitle format used on DVDs
Title                                    : TH 1080P
Language                                 : Thai
Default                                  : No
Forced                                   : No

Text #3
ID                                       : 6
Format                                   : PGS
Codec ID                                 : S_HDMV/PGS
Codec ID/Info                            : The same subtitle format used on BDs/HD-DVDs
Title                                    : TH PGS
Language                                 : Thai
Default                                  : No
Forced                                   : No

Text #4
ID                                       : 7
Format                                   : PGS
Codec ID                                 : S_HDMV/PGS
Codec ID/Info                            : The same subtitle format used on BDs/HD-DVDs
Title                                    : EN PGS
Language                                 : English
Default                                  : No
Forced                                   : No


The Hunger Games: Mockingjay Part 2 (2015) : เกมล่าเกม: ม็อกกิ้งเจย์ พาร์ท 2
เรื่องย่อ…

พบกับการเปิดฉากการต่อสู้ครั้งสุดท้ายที่จะเปลี่ยนพา เน็มไปตลอดกาล ภาคจบของภาพยนตร์ที่ผู้ชมทั่วโลกเฝ้ารอคอยมากที่สุดแ ห่งปีที่สร้างปรากฏการณ์ฟีเวอร์ร้อนแรงที่สุดแห่งทศว รรษถึงเวลาสาหรับศึกการต่อสู้ครั้งยิ่งใหญ่ที่จะกำหน ดชะตาของผู้คนทั้งพาเน็ม เมื่อแคทนิส เอเวอร์ดีน(เจนนิเฟอร์ ลอว์เรนซ์) ร่วมมือกับเขต 13และรับข้อเสนอของประธานาธิบดีคอยน์(จูลีแอนน์ มัวร์) ที่จะรับหน้าที่ ม็อกกิ้งเจย์ สัญลักษณ์และความหวังและผู้นำในการเคลื่อนไหวครั้งนี ้หลังจากที่ก่อนหน้านี
ประธานาธิบดีสโนว์ประกาศกร้าวที่จะไม่ยอมอ่อนข้อให้ก ับกลุ่มกบฏอีกต่อไปและพร้อมที่จะตอบโต้แบบตาต่อตาฟัน ต่อฟันพวกเขาก็เช่นกันที่พร้อมจะต่อสู้ชนิดที่หากต้อ งมอดไหม้ อีกฝ่ายก็ต้องมอดไหม้ไปด้วย
Complete name                            : D:หนัง1..The Hunger Games 1-4 Quadrilogy (2012-2015)  เกมล่าเกม ภาค 1-44.The Hunger Games 4 Mockingjay Part 2 (2015) เกมล่าเกม พาร์ท 2 ภาค 4The.Hunger.Games.Mockingjay.Part.2.2015.1080p.BluRay.DTS.x264-ThinmanSB.mkv
Format                                   : Matroska
Format version                           : Version 4 / Version 2
File size                                : 4.48 GiB
Duration                                 : 2h 16mn
Overall bit rate                         : 4 680 Kbps
Movie name                               : The.Hunger.Games.Mockingjay.Part.2.2015.1080p.BluRay.DTS.x264-ThinmanSB
Encoded date                             : UTC 2016-07-27 06:30:14
Writing application                      : mkvmerge v9.3.1 ( Mask Machine ) 64bit
Writing library                          : libebml v1.3.4 + libmatroska v1.4.5
DURATION                                 : 02:04:25.090000000
NUMBER_OF_FRAMES                         : 2698
NUMBER_OF_BYTES                          : 17674854
_STATISTICS_WRITING_APP                  : mkvmerge v9.3.1 ( Mask Machine ) 64bit
_STATISTICS_WRITING_DATE_UTC             : 2016-07-27 06:30:14
_STATISTICS_TAGS                         : BPS DURATION NUMBER_OF_FRAMES NUMBER_OF_BYTES

Video
ID                                       : 1
Format                                   : AVC
Format/Info                              : Advanced Video Codec
Format profile                           : High@L4.0
Format settings, CABAC                   : Yes
Format settings, ReFrames                : 4 frames
Codec ID                                 : V_MPEG4/ISO/AVC
Duration                                 : 2h 16mn
Bit rate                                 : 3 113 Kbps
Width                                    : 1 920 pixels
Height                                   : 800 pixels
Display aspect ratio                     : 2.40:1
Frame rate mode                          : Constant
Frame rate                               : 23.976 fps
Color space                              : YUV
Chroma subsampling                       : 4:2:0
Bit depth                                : 8 bits
Scan type                                : Progressive
Bits/(Pixel*Frame)                       : 0.085
Stream size                              : 2.93 GiB (65%)
Title                                    : The.Hunger.Games.Mockingjay.Part.2.2015.1080p.BluRay.DTS.x264-ThinmanSB
Writing library                          : x264 core 130 r2273 b3065e6
Encoding settings                        : cabac=1 / ref=4 / deblock=1:0:0 / analyse=0x3:0x113 / me=umh / subme=11 / psy=1 / psy_rd=1.00:0.00 / mixed_ref=1 / me_range=64 / chroma_me=1 / trellis=2 / 8x8dct=1 / cqm=0 / deadzone=21,11 / fast_pskip=1 / chroma_qp_offset=-2 / threads=10 / lookahead_threads=1 / sliced_threads=0 / nr=0 / decimate=1 / interlaced=0 / bluray_compat=0 / constrained_intra=0 / bframes=4 / b_pyramid=2 / b_adapt=2 / b_bias=0 / direct=1 / weightb=1 / open_gop=0 / weightp=2 / keyint=240 / keyint_min=24 / scenecut=40 / intra_refresh=0 / rc_lookahead=40 / rc=2pass / mbtree=1 / bitrate=3113 / ratetol=1.0 / qcomp=0.60 / qpmin=0 / qpmax=69 / qpstep=4 / cplxblur=20.0 / qblur=0.5 / ip_ratio=1.40 / aq=1:1.00
Language                                 : English
Default                                  : Yes
Forced                                   : No
Color primaries                          : BT.709
Transfer characteristics                 : BT.709
Matrix coefficients                      : BT.709
Color range                              : Limited

Audio #1
ID                                       : 2
Format                                   : DTS
Format/Info                              : Digital Theater Systems
Mode                                     : 16
Format settings, Endianness              : Big
Codec ID                                 : A_DTS
Duration                                 : 2h 16mn
Bit rate mode                            : Constant
Bit rate                                 : 768 Kbps
Channel(s)                               : 6 channels
Channel positions                        : Front: L C R, Side: L R, LFE
Sampling rate                            : 48.0 KHz
Bit depth                                : 24 bits
Compression mode                         : Lossy
Stream size                              : 752 MiB (16%)
Title                                    : THAI DTS @768Kbps
Language                                 : Thai
Default                                  : Yes
Forced                                   : No

Audio #2
ID                                       : 3
Format                                   : DTS
Format/Info                              : Digital Theater Systems
Mode                                     : 16
Format settings, Endianness              : Big
Codec ID                                 : A_DTS
Duration                                 : 2h 16mn
Bit rate mode                            : Constant
Bit rate                                 : 755 Kbps
Channel(s)                               : 6 channels
Channel positions                        : Front: L C R, Side: L R, LFE
Sampling rate                            : 48.0 KHz
Bit depth                                : 24 bits
Compression mode                         : Lossy
Stream size                              : 739 MiB (16%)
Title                                    : ENGLISH DTS @755 Kbps
Language                                 : English
Default                                  : No
Forced                                   : No

Text #1
ID                                       : 4
Format                                   : VobSub
Codec ID                                 : S_VOBSUB
Codec ID/Info                            : The same subtitle format used on DVDs
Title                                    : TH 480P
Language                                 : Thai
Default                                  : No
Forced                                   : No

Text #2
ID                                       : 5
Format                                   : VobSub
Codec ID                                 : S_VOBSUB
Codec ID/Info                            : The same subtitle format used on DVDs
Title                                    : TH 720P
Language                                 : Thai
Default                                  : No
Forced                                   : No

Text #3
ID                                       : 6
Format                                   : VobSub
Codec ID                                 : S_VOBSUB
Codec ID/Info                            : The same subtitle format used on DVDs
Title                                    : TH 1080P
Language                                 : Thai
Default                                  : Yes
Forced                                   : Yes

Text #4
ID                                       : 7
Format                                   : PGS
Codec ID                                 : S_HDMV/PGS
Codec ID/Info                            : The same subtitle format used on BDs/HD-DVDs
Title                                    : TH PGS
Language                                 : Thai
Default                                  : No
Forced                                   : No

Text #5
ID                                       : 8
Format                                   : VobSub
Codec ID                                 : S_VOBSUB
Codec ID/Info                            : The same subtitle format used on DVDs
Title                                    : EN
Language                                 : English
Default                                  : No
Forced                                   : No

Text #6
ID                                       : 9
Format                                   : PGS
Codec ID                                 : S_HDMV/PGS
Codec ID/Info                            : The same subtitle format used on BDs/HD-DVDs
Title                                    : EN PGS
Language                                 : English
Default                                  : No
Forced                                   : No

เครดิต คุณ.. ThinmanSB และ คุณ.. NongZEZA

The.Hunger.Games.2012.1080p.BluRay.DTS.x264-ThinmanSB.mkv – 4.5 GB
{MINI-HQ}The.Hunger.Games.Catching.Fire.2013.1080p.BrRip.Thai DTS_by NongZEZA@CtHts.mkv – 4.3 GB
The.Hunger.Games.Mockingjay.Part.1.2014.1080p.BluRay.DTS.x264-ThinmanSB.mkv – 4.5 GB
The.Hunger.Games.Mockingjay.Part.2.2015.1080p.BluRay.DTS.x264-ThinmanSB.mkv – 4.5 GB

Facebook Comments

About the author

one4up .com

Add Comment

Click here to post a comment

Posts

HD Blu-Ray 1080p

[ฝรั่ง]-ใหม่ร้อนๆ! +[* เสียงไทยมาสเตอร์ *] Sleepless (2017) : คืนเดือด คนระห่ำ [*CtHts@SiamBIT*] • [พากย์ไทย มาสเตอร์ + เสียงอังกฤษ DTS] • [บรรยาย อังกฤษ] • [เสียงไทย MASTER] • [ เล็กพริกขี้หนู 1080p HQ ] Or *• ไฟล์เล็ก 1080p คุณภาพสูง

Advertisement