Boxset DVD CD HD Blu-ray Mini HD Blu-Ray 1080p

[ฝรั่ง]-[Mini-HD]-[ BoxSet 3 ภาค]-[** คมชัดสะใจ ทั้งภาพและเสียง + สำหรับนักสะสม หนังภาคต่อ **] The Divergent 1-3 Trilogy (2014-2016) ไดเวอร์เจนท์ คนแยกโลก ภาค 1-3 [Master] [1080p HQ.] [เสียงไทยมาสเตอร์ DTS/5.1 + ENG DTS ] [บรรยายไทย + อังกฤษ] [เสียง + ซับ From BluRay MASTER : + ซับไทย PGS คมชัดถึงใจ][.MKV]-MiniBD.DTS.1080p. [Rip]-[พากย์ไทย บรรยายไทย]

เรื่องย่อ… Divergent (2014) ไดเวอร์เจนท์ คนแยกโลก 1
Divergent สร้างจากวรรณกรรมเยาวชนขายดีของ เวโรนิก้า รอทห์ (Veronica Roth) ว่าด้วยเรื่องราวของ สังคมอันเสื่อมทรามชิคาโก้ถูกแบ่งออกเป็น 5 ส่วน ซึ่งได้แก่ Candor กลุ่มคนที่ยึดถือในความจริง Abnegation กลุ่มที่ยึดมั่นในการเสียสละตนเอง, Dauntless กลุ่มคนที่ยึดมั่นในความหาญกล้า, Amity กลุ่มคนที่ยึดถือในความสมานฉันท์ และ Erudite กลุ่มคนที่ยึดถือในความรู้และสติปัญญา โดยในทุก ๆ ปีจะมีวันที่กำหนดให้ เด็กอายุ 16 ปีทุกคนเลือกว่าตัวเองจะไปอยู่ในส่วนไหน ซึ่งหลังจากเลือกแล้วก็จะต้องอยู่กับการตัดสินใจของตัวเองตลอดไป และสำหรับ บีทริซ (Beatrice) สิ่งที่เธอต้องการ คือการอยู่ร่วมกับครอบครัว รวมทั้งเป็นตัวเองในสิ่งที่เธอฝันมาตลอด ซึ่งเธอจำเป็นต้องเลือกระหว่างสิ่งใดสิ่งหนึ่ง ทำให้เธอตัดสินใจทำในสิ่งที่คนไม่คาดคิด แม้กระทั่งตัวเธอเองระหว่างการเริ่มต้นที่เต็มไปด้วยการแข่งขันนี้ บีทริซ (Beatrice) ตัดสินใจเปลี่ยนชื่อตัวเองเป็น ทริส (Tris) และร่วมเดินทางไปกับเพื่อน ๆ ที่ต้องเดินทางตามการตัดสินใจของตัวเองไปด้วยเหมือนกัน ซึ่งมีการทดสอบสุดหินทั้งทางร่างกายและจิตใจผ่านโปรแกรมจำลองภาพ ที่บางอันก็ส่งผลกระทบมาถึงชีวิตจริงด้วย ในเวลานี้เองที่ทริสต้องมองให้ออกว่าใครกันแน่คือเพื่อนแท้ รวมทั้งความสัมพันธ์กับชายหนุ่มที่ก่อตัวขึ้น จะไปในทางเดียวกับทางเดินชีวิตที่เธอตัดสินใจเอาไว้ได้หรือเปล่าอย่างไรก็ดี ทริสยังคงมีความลับบางอย่างซ่อนอยู่ ความลับที่เธอไม่อาจบอกใคร เพราะถูกเตือนเอาไว้ว่าการเปิดเผยมันอาจหมายถึงความตาย เมื่อเผชิญกับความกดดันและอุปสรรคมากมาย ทริสได้เรียนรู้ว่าความลับของเธอมีความสำคัญมากพอจะช่วยเหลือคนที่รักได้ แต่มันอาจมาพร้อมกับความพินาศของเธอด้วย
Complete name                            : D:xxx1..The Divergent 1-3 Trilogy (2014-2016) ไดเวอร์เจนท์ คนแยกโลก ภาค 1-31.Divergent (2014) ไดเวอร์เจนท์ คนแยกโลก 1{MINI Super-HQ}Divergent.2014.1080p.BrRip.x264.DTS-TH_by NongZEZA@CtHts .mkv
Format                                   : Matroska
Format version                           : Version 4 / Version 2
File size                                : 4.47 GiB
Duration                                 : 2h 19mn
Overall bit rate                         : 4 586 Kbps
Movie name                               : {MINI Super-HQ}Divergent.2014.1080p.BrRip.x264.DTS-TH_by NongZEZA@CtHts
Encoded date                             : UTC 2010-02-22 21:41:31
Writing application                      : mkvmerge v5.9.0 ( On The Loose ) built on Dec  9 2012 15:37:01
Writing library                          : libebml v1.3.0 + libmatroska v1.4.0

Video
ID                                       : 1
Format                                   : AVC
Format/Info                              : Advanced Video Codec
Format profile                           : High@L4.0
Format settings, CABAC                   : Yes
Format settings, ReFrames                : 4 frames
Codec ID                                 : V_MPEG4/ISO/AVC
Duration                                 : 2h 19mn
Bit rate                                 : 3 003 Kbps
Width                                    : 1 920 pixels
Height                                   : 800 pixels
Display aspect ratio                     : 2.40:1
Frame rate mode                          : Constant
Frame rate                               : 23.976 fps
Color space                              : YUV
Chroma subsampling                       : 4:2:0
Bit depth                                : 8 bits
Scan type                                : Progressive
Bits/(Pixel*Frame)                       : 0.082
Stream size                              : 2.91 GiB (65%)
Title                                    : {MINI Super-HQ}Divergent.2014.1080p.BrRip.x264.DTS-TH_by NongZEZA@CtHts
Writing library                          : x264 core 130 r2273 b3065e6
Encoding settings                        : cabac=1 / ref=4 / deblock=1:0:0 / analyse=0x3:0x113 / me=umh / subme=11 / psy=1 / psy_rd=1.00:0.00 / mixed_ref=1 / me_range=32 / chroma_me=1 / trellis=2 / 8x8dct=1 / cqm=0 / deadzone=21,11 / fast_pskip=1 / chroma_qp_offset=-2 / threads=12 / lookahead_threads=1 / sliced_threads=0 / nr=0 / decimate=1 / interlaced=0 / bluray_compat=0 / constrained_intra=0 / bframes=4 / b_pyramid=2 / b_adapt=2 / b_bias=0 / direct=1 / weightb=1 / open_gop=0 / weightp=2 / keyint=240 / keyint_min=24 / scenecut=40 / intra_refresh=0 / rc_lookahead=40 / rc=2pass / mbtree=1 / bitrate=3003 / ratetol=1.0 / qcomp=0.60 / qpmin=0 / qpmax=69 / qpstep=4 / cplxblur=20.0 / qblur=0.5 / ip_ratio=1.40 / aq=1:1.00
Language                                 : English
Default                                  : Yes
Forced                                   : No
Color primaries                          : BT.709
Transfer characteristics                 : BT.709
Matrix coefficients                      : BT.709
Color range                              : Limited

Audio #1
ID                                       : 2
Format                                   : DTS
Format/Info                              : Digital Theater Systems
Mode                                     : 16
Format settings, Endianness              : Big
Codec ID                                 : A_DTS
Duration                                 : 2h 19mn
Bit rate mode                            : Constant
Bit rate                                 : 755 Kbps
Channel(s)                               : 6 channels
Channel positions                        : Front: L C R, Side: L R, LFE
Sampling rate                            : 48.0 KHz
Bit depth                                : 24 bits
Compression mode                         : Lossy
Stream size                              : 754 MiB (16%)
Title                                    : Thai DTS BluRay Master
Language                                 : Thai
Default                                  : Yes
Forced                                   : Yes

Audio #2
ID                                       : 3
Format                                   : DTS
Format/Info                              : Digital Theater Systems
Mode                                     : 16
Format settings, Endianness              : Big
Codec ID                                 : A_DTS
Duration                                 : 2h 19mn
Bit rate mode                            : Constant
Bit rate                                 : 755 Kbps
Channel(s)                               : 6 channels
Channel positions                        : Front: L C R, Side: L R, LFE
Sampling rate                            : 48.0 KHz
Bit depth                                : 24 bits
Compression mode                         : Lossy
Stream size                              : 754 MiB (16%)
Title                                    : English DTS
Language                                 : English
Default                                  : No
Forced                                   : No

Text #1
ID                                       : 4
Format                                   : VobSub
Codec ID                                 : S_VOBSUB
Codec ID/Info                            : The same subtitle format used on DVDs
Title                                    : Thai 480p
Language                                 : Thai
Default                                  : No
Forced                                   : No

Text #2
ID                                       : 5
Format                                   : VobSub
Codec ID                                 : S_VOBSUB
Codec ID/Info                            : The same subtitle format used on DVDs
Title                                    : Thai 720p
Language                                 : Thai
Default                                  : No
Forced                                   : No

Text #3
ID                                       : 6
Format                                   : VobSub
Codec ID                                 : S_VOBSUB
Codec ID/Info                            : The same subtitle format used on DVDs
Title                                    : Thai 1080p BluRay Master
Language                                 : Thai
Default                                  : Yes
Forced                                   : Yes

Text #4
ID                                       : 7
Format                                   : VobSub
Codec ID                                 : S_VOBSUB
Codec ID/Info                            : The same subtitle format used on DVDs
Title                                    : Thai 1080p BIG
Language                                 : Thai
Default                                  : No
Forced                                   : No

Text #5
ID                                       : 8
Format                                   : VobSub
Codec ID                                 : S_VOBSUB
Codec ID/Info                            : The same subtitle format used on DVDs
Title                                    : Thai 1080p Out
Language                                 : Thai
Default                                  : No
Forced                                   : No

Text #6
ID                                       : 9
Format                                   : VobSub
Codec ID                                 : S_VOBSUB
Codec ID/Info                            : The same subtitle format used on DVDs
Title                                    : Thai 1080p Out [BIG]
Language                                 : Thai
Default                                  : No
Forced                                   : No

Text #7
ID                                       : 10
Format                                   : PGS
Codec ID                                 : S_HDMV/PGS
Codec ID/Info                            : The same subtitle format used on BDs/HD-DVDs
Title                                    : Thai PGS BluRay Master
Language                                 : Thai
Default                                  : No
Forced                                   : No

Text #8
ID                                       : 11
Format                                   : PGS
Codec ID                                 : S_HDMV/PGS
Codec ID/Info                            : The same subtitle format used on BDs/HD-DVDs
Title                                    : Thai PGS Out
Language                                 : Thai
Default                                  : No
Forced                                   : No

Text #9
ID                                       : 12
Format                                   : VobSub
Codec ID                                 : S_VOBSUB
Codec ID/Info                            : The same subtitle format used on DVDs
Title                                    : English
Language                                 : English
Default                                  : No
Forced                                   : No

                                                                         เรื่องย่อ…Insurgent (2015) คนกบฏโลก 2

การกลับมาอีกครั้งของเด็กสาวเพียงคนเดียวผู้เกิดมา “แตกต่าง” ในภาคต่อของภาพยนตร์แอ็คชั่นแฟนตาซีฟอร์มยักษ์แห่งปี “Insurgent” ที่จะกลับมาพร้อมความยิ่งใหญ่ พร้อมปิดฉากการต่อสู้ครั้งใหม่ที่เข้มข้นยิ่งกว่าเดิม เรื่องราวที่เป็นจุดเริ่มต้นแห่งการต่อสู้ครั้งใหม่ของ ทริส (เชย์ลีน วู้ดลีย์) เด็กสาวที่ย้ายจากกลุ่มผู้ปกครอง (Abnegetion) ไปอยู่กลุ่มผู้กล้า (Dauntless) ที่นั่นเธอได้ค้นพบแผนการชั่วร้ายที่จะยึดครองสังคมของ เจอนีน (เคท วินสเล็ต) หัวหน้ากลุ่มทรงปัญญา (Erudite) ซึ่งทำให้ทริสต้องดึงความกล้าของตัวเองออกมาเพื่อต่อสู้ร่วมกับคนรักอย่าง โฟร์ (ธีโอ เจมส์) ในการเปิดโปงความลับเหล่านี้ให้ได้ หลังจากการเผชิญหน้าครั้งใหญ่ที่ผ่านมา ทริส และโฟร์ ได้เดินทางไปยังเขตของกลุ่มสันติ (Amity) เพื่อขอความช่วยเหลือและสร้างพันธมิตรที่จะร่วมมือกันเพื่อต่อสู้ แต่ทว่าพวกเขากลับได้พบความจริงที่น่าเหลือเชื่อยิ่งกว่า ซึ่งมันจะนำมาสู่การเปลี่ยนแปลงครั้งใหญ่ของสังคมที่เคยสงบสุขแห่งนี้
Complete name                            : D:xxx1..The Divergent 1-3 Trilogy (2014-2016) ไดเวอร์เจนท์ คนแยกโลก ภาค 1-32.Insurgent (2015) คนกบฏโลก 2{MINI Super-HQ}_INSURGENT.2015.1080p.BrRip.DTS.x264.THD_by NongZEZA@CtHts.mkv
Format                                   : Matroska
Format version                           : Version 4 / Version 2
File size                                : 3.97 GiB
Duration                                 : 1h 58mn
Overall bit rate                         : 4 773 Kbps
Movie name                               : {MINI Super-HQ}_INSURGENT.2015.1080p.BrRip.DTS.x264.THD_by NongZEZA@CtHts
Encoded date                             : UTC 2010-02-22 21:41:31
Writing application                      : mkvmerge v5.9.0 ( On The Loose ) built on Dec  9 2012 15:37:01
Writing library                          : libebml v1.3.0 + libmatroska v1.4.0

Video
ID                                       : 1
Format                                   : AVC
Format/Info                              : Advanced Video Codec
Format profile                           : High@L4.0
Format settings, CABAC                   : Yes
Format settings, ReFrames                : 5 frames
Codec ID                                 : V_MPEG4/ISO/AVC
Duration                                 : 1h 58mn
Bit rate                                 : 3 444 Kbps
Width                                    : 1 920 pixels
Height                                   : 818 pixels
Display aspect ratio                     : 2.35:1
Original display aspect ratio            : 2.35:1
Frame rate mode                          : Constant
Frame rate                               : 23.976 fps
Color space                              : YUV
Chroma subsampling                       : 4:2:0
Bit depth                                : 8 bits
Scan type                                : Progressive
Bits/(Pixel*Frame)                       : 0.091
Stream size                              : 2.89 GiB (73%)
Title                                    : {MINI Super-HQ}_INSURGENT.2015.1080p.BrRip.DTS.x264.THD_by NongZEZA@CtHts
Writing library                          : x264 core 130 r2273 b3065e6
Encoding settings                        : cabac=1 / ref=5 / deblock=1:0:0 / analyse=0x3:0x113 / me=umh / subme=11 / psy=1 / psy_rd=1.00:0.00 / mixed_ref=1 / me_range=48 / chroma_me=1 / trellis=2 / 8x8dct=1 / cqm=0 / deadzone=21,11 / fast_pskip=1 / chroma_qp_offset=-2 / threads=12 / lookahead_threads=1 / sliced_threads=0 / nr=0 / decimate=1 / interlaced=0 / bluray_compat=0 / constrained_intra=0 / bframes=5 / b_pyramid=2 / b_adapt=2 / b_bias=0 / direct=1 / weightb=1 / open_gop=0 / weightp=2 / keyint=240 / keyint_min=24 / scenecut=40 / intra_refresh=0 / rc_lookahead=40 / rc=2pass / mbtree=1 / bitrate=3444 / ratetol=1.0 / qcomp=0.60 / qpmin=0 / qpmax=69 / qpstep=4 / cplxblur=20.0 / qblur=0.5 / ip_ratio=1.40 / aq=1:1.00
Language                                 : English
Default                                  : Yes
Forced                                   : No
Color primaries                          : BT.709
Transfer characteristics                 : BT.709
Matrix coefficients                      : BT.709
Color range                              : Limited

Audio #1
ID                                       : 2
Format                                   : AC-3
Format/Info                              : Audio Coding 3
Mode extension                           : CM (complete main)
Format settings, Endianness              : Big
Codec ID                                 : A_AC3
Duration                                 : 1h 58mn
Bit rate mode                            : Constant
Bit rate                                 : 448 Kbps
Channel(s)                               : 6 channels
Channel positions                        : Front: L C R, Side: L R, LFE
Sampling rate                            : 48.0 KHz
Bit depth                                : 16 bits
Compression mode                         : Lossy
Stream size                              : 381 MiB (9%)
Title                                    : Thai DVD Master
Language                                 : Thai
Default                                  : Yes
Forced                                   : Yes

Audio #2
ID                                       : 3
Format                                   : DTS
Format/Info                              : Digital Theater Systems
Mode                                     : 16
Format settings, Endianness              : Big
Codec ID                                 : A_DTS
Duration                                 : 1h 58mn
Bit rate mode                            : Constant
Bit rate                                 : 755 Kbps
Channel(s)                               : 6 channels
Channel positions                        : Front: L C R, Side: L R, LFE
Sampling rate                            : 48.0 KHz
Bit depth                                : 24 bits
Compression mode                         : Lossy
Stream size                              : 642 MiB (16%)
Title                                    : English DTS
Language                                 : English
Default                                  : No
Forced                                   : No

Text #1
ID                                       : 4
Format                                   : VobSub
Codec ID                                 : S_VOBSUB
Codec ID/Info                            : The same subtitle format used on DVDs
Title                                    : Thai 480p DVD Master
Language                                 : Thai
Default                                  : No
Forced                                   : No

Text #2
ID                                       : 5
Format                                   : VobSub
Codec ID                                 : S_VOBSUB
Codec ID/Info                            : The same subtitle format used on DVDs
Title                                    : Thai 720p
Language                                 : Thai
Default                                  : No
Forced                                   : No

Text #3
ID                                       : 6
Format                                   : VobSub
Codec ID                                 : S_VOBSUB
Codec ID/Info                            : The same subtitle format used on DVDs
Title                                    : Thai 1080p
Language                                 : Thai
Default                                  : Yes
Forced                                   : Yes

Text #4
ID                                       : 7
Format                                   : VobSub
Codec ID                                 : S_VOBSUB
Codec ID/Info                            : The same subtitle format used on DVDs
Title                                    : Thai 1080p Yellow
Language                                 : Thai
Default                                  : No
Forced                                   : No

Text #5
ID                                       : 8
Format                                   : VobSub
Codec ID                                 : S_VOBSUB
Codec ID/Info                            : The same subtitle format used on DVDs
Title                                    : Thai 1080p Out
Language                                 : Thai
Default                                  : No
Forced                                   : No

Text #6
ID                                       : 9
Format                                   : VobSub
Codec ID                                 : S_VOBSUB
Codec ID/Info                            : The same subtitle format used on DVDs
Title                                    : Thai 1080p BIG
Language                                 : Thai
Default                                  : No
Forced                                   : No

Text #7
ID                                       : 10
Format                                   : VobSub
Codec ID                                 : S_VOBSUB
Codec ID/Info                            : The same subtitle format used on DVDs
Title                                    : Thai 1080p Out [BIG]
Language                                 : Thai
Default                                  : No
Forced                                   : No

Text #8
ID                                       : 11
Format                                   : PGS
Codec ID                                 : S_HDMV/PGS
Codec ID/Info                            : The same subtitle format used on BDs/HD-DVDs
Title                                    : Thai PGS
Language                                 : Thai
Default                                  : No
Forced                                   : No

Text #9
ID                                       : 12
Format                                   : PGS
Codec ID                                 : S_HDMV/PGS
Codec ID/Info                            : The same subtitle format used on BDs/HD-DVDs
Title                                    : Thai PGS Yellow
Language                                 : Thai
Default                                  : No
Forced                                   : No

Text #10
ID                                       : 13
Format                                   : PGS
Codec ID                                 : S_HDMV/PGS
Codec ID/Info                            : The same subtitle format used on BDs/HD-DVDs
Title                                    : Thai PGS Out
Language                                 : Thai
Default                                  : No
Forced                                   : No

Text #11
ID                                       : 14
Format                                   : VobSub
Codec ID                                 : S_VOBSUB
Codec ID/Info                            : The same subtitle format used on DVDs
Title                                    : English
Language                                 : English
Default                                  : No
Forced                                   : No
                                                                                                                                  เรื่องย่อ…The Divergent Series Allegiant (2016) อัลลีเจนท์ ปฎิวัติสองโลก 3
บอกเล่าเรื่องราวของ ทริซ และ โฟร์ ที่จะนำ ทีมอัลลีเจนท์ ทะลุสู่โลกเบื้องหลังกำแพง เผชิญหน้ากับจุดเปลี่ยนครั้งสำคัญ จากศัตรูที่อันตรายยิ่งกว่าคนทุกกลุ่มที่พวกเขาเคยต้องต่อสู้ ตะลึงกับความลับเปลี่ยนอนาคตโลกไปตลอดกาล และร่วมเป็นกำลังใจให้กับพลังความรักของทริซและโฟร์ท่ามกลางสงครามสองโลก ใน อัลลีเจนท์ จะไม่มีการต่อสู้ระหว่างคนต่างกลุ่มอีกต่อไป แต่ครั้งนี้มันจะเป็น สงคราม ที่จะเปลี่ยนแปลงอน่คตคนทั้งโลกไปตลอดกาล สมกับเป็นภาพยนตร์แอคชั่น-ไซไฟฟอร์มยักษ์โฉมหน้าใหม่สำหรับแฟนภาพยนตร์ทุก ๆ คน
Complete name                            : D:xxx1..The Divergent 1-3 Trilogy (2014-2016) ไดเวอร์เจนท์ คนแยกโลก ภาค 1-33.The Divergent Series Allegiant (2016) อัลลีเจนท์ ปฎิวัติสองโลก 3Allegiant.2016.1080p.SuperHQ.DTS.x264.MASTER-siambit.tv .mkv
Format                                   : Matroska
Format version                           : Version 4 / Version 2
File size                                : 4.19 GiB
Duration                                 : 2h 0mn
Overall bit rate                         : 4 979 Kbps
Movie name                               : www.siambit.me.com
Encoded date                             : UTC 2016-07-14 11:25:14
Writing application                      : mkvmerge v8.9.0 ( Father Daughter ) 32bit
Writing library                          : libebml v1.3.3 + libmatroska v1.4.4

Video
ID                                       : 1
Format                                   : AVC
Format/Info                              : Advanced Video Codec
Format profile                           : High@L4.1
Format settings, CABAC                   : Yes
Format settings, ReFrames                : 4 frames
Codec ID                                 : V_MPEG4/ISO/AVC
Duration                                 : 2h 0mn
Bit rate                                 : 3 683 Kbps
Width                                    : 1 920 pixels
Height                                   : 800 pixels
Display aspect ratio                     : 2.40:1
Frame rate mode                          : Constant
Frame rate                               : 23.976 fps
Color space                              : YUV
Chroma subsampling                       : 4:2:0
Bit depth                                : 8 bits
Scan type                                : Progressive
Bits/(Pixel*Frame)                       : 0.100
Stream size                              : 3.10 GiB (74%)
Title                                    : Allegiant.2016.1080p.SuperHQ.DTS.x264.MASTER-siambit.tv
Writing library                          : x264 core 130 r2273 b3065e6
Encoding settings                        : cabac=1 / ref=4 / deblock=1:-3:-3 / analyse=0x3:0x113 / me=umh / subme=11 / psy=1 / psy_rd=1.00:0.00 / mixed_ref=1 / me_range=64 / chroma_me=1 / trellis=2 / 8x8dct=1 / cqm=0 / deadzone=21,11 / fast_pskip=1 / chroma_qp_offset=-2 / threads=24 / lookahead_threads=2 / sliced_threads=0 / nr=0 / decimate=1 / interlaced=0 / bluray_compat=0 / constrained_intra=0 / bframes=4 / b_pyramid=2 / b_adapt=1 / b_bias=0 / direct=1 / weightb=1 / open_gop=0 / weightp=2 / keyint=250 / keyint_min=23 / scenecut=40 / intra_refresh=0 / rc_lookahead=120 / rc=2pass / mbtree=1 / bitrate=3683 / ratetol=1.0 / qcomp=0.60 / qpmin=0 / qpmax=69 / qpstep=4 / cplxblur=20.0 / qblur=0.5 / vbv_maxrate=99999 / vbv_bufsize=99999 / nal_hrd=none / ip_ratio=1.40 / aq=1:1.00
Language                                 : English
Default                                  : Yes
Forced                                   : Yes

Audio #1
ID                                       : 2
Format                                   : AC-3
Format/Info                              : Audio Coding 3
Mode extension                           : CM (complete main)
Format settings, Endianness              : Big
Codec ID                                 : A_AC3
Duration                                 : 2h 0mn
Bit rate mode                            : Constant
Bit rate                                 : 448 Kbps
Channel(s)                               : 6 channels
Channel positions                        : Front: L C R, Side: L R, LFE
Sampling rate                            : 48.0 KHz
Bit depth                                : 16 bits
Compression mode                         : Lossy
Stream size                              : 386 MiB (9%)
Title                                    : AC3 DVD MASTER siambit.me
Language                                 : Thai
Default                                  : Yes
Forced                                   : Yes

Audio #2
ID                                       : 3
Format                                   : DTS
Format/Info                              : Digital Theater Systems
Mode                                     : 16
Format settings, Endianness              : Big
Codec ID                                 : A_DTS
Duration                                 : 2h 0mn
Bit rate mode                            : Constant
Bit rate                                 : 755 Kbps
Channel(s)                               : 6 channels
Channel positions                        : Front: L C R, Side: L R, LFE
Sampling rate                            : 48.0 KHz
Bit depth                                : 24 bits
Compression mode                         : Lossy
Stream size                              : 651 MiB (15%)
Title                                    : DTS siambit.me
Language                                 : English
Default                                  : No
Forced                                   : No

Text #1
ID                                       : 4
Format                                   : VobSub
Codec ID                                 : S_VOBSUB
Codec ID/Info                            : The same subtitle format used on DVDs
Title                                    : 1080P DN siambit.me
Language                                 : Thai
Default                                  : No
Forced                                   : No

Text #2
ID                                       : 5
Format                                   : VobSub
Codec ID                                 : S_VOBSUB
Codec ID/Info                            : The same subtitle format used on DVDs
Title                                    : 1080P DN YELLOW siambit.me
Language                                 : Thai
Default                                  : No
Forced                                   : No

Text #3
ID                                       : 6
Format                                   : VobSub
Codec ID                                 : S_VOBSUB
Codec ID/Info                            : The same subtitle format used on DVDs
Title                                    : 1080P DN UNDER siambit.me
Language                                 : Thai
Default                                  : No
Forced                                   : No

Text #4
ID                                       : 7
Format                                   : VobSub
Codec ID                                 : S_VOBSUB
Codec ID/Info                            : The same subtitle format used on DVDs
Title                                    : 480P DN siambit.me
Language                                 : Thai
Default                                  : No
Forced                                   : No

Text #5
ID                                       : 8
Format                                   : UTF-8
Codec ID                                 : S_TEXT/UTF8
Codec ID/Info                            : UTF-8 Plain Text
Title                                    : SRT OCR siambit.me
Language                                 : Thai
Default                                  : No
Forced                                   : No

Text #6
ID                                       : 9
Format                                   : PGS
Codec ID                                 : S_HDMV/PGS
Codec ID/Info                            : The same subtitle format used on BDs/HD-DVDs
Title                                    : DN siambit.me
Language                                 : Thai
Default                                  : Yes
Forced                                   : Yes

Text #7
ID                                       : 10
Format                                   : PGS
Codec ID                                 : S_HDMV/PGS
Codec ID/Info                            : The same subtitle format used on BDs/HD-DVDs
Title                                    : DN UNDER siambit.me
Language                                 : Thai
Default                                  : No
Forced                                   : No

Text #8
ID                                       : 11
Format                                   : PGS
Codec ID                                 : S_HDMV/PGS
Codec ID/Info                            : The same subtitle format used on BDs/HD-DVDs
Title                                    : BD siambit.me
Language                                 : English
Default                                  : No
Forced                                   : No


เครดิต..คุณ..NongZEZAและทีมงาน

Allegiant.2016.1080p.SuperHQ.DTS.x264.MASTER-Zakky .mkv – 4.2 GB
{MINI Super-HQ}Divergent.2014.1080p.BrRip.x264.DTS-TH_by NongZEZA@CtHts .mkv – 4.5 GB
{MINI Super-HQ}_INSURGENT.2015.1080p.BrRip.DTS.x264.THD_by NongZEZA@CtHts.mkv – 4.0 GB

Facebook Comments

About the author

one4up .com

Add Comment

Click here to post a comment

Posts

HD Blu-Ray 1080p

[ฝรั่ง]-ใหม่ร้อนๆ! +[* เสียงไทยมาสเตอร์ *] Sleepless (2017) : คืนเดือด คนระห่ำ [*CtHts@SiamBIT*] • [พากย์ไทย มาสเตอร์ + เสียงอังกฤษ DTS] • [บรรยาย อังกฤษ] • [เสียงไทย MASTER] • [ เล็กพริกขี้หนู 1080p HQ ] Or *• ไฟล์เล็ก 1080p คุณภาพสูง

Advertisement