Boxset DVD CD HD Blu-ray Mini HD Blu-Ray 1080p

ฝรั่ง]-[Mini-HD]-[**คมชัดสะใจทั้งภาพและเสียง สำหรับแฟนพระเอก แม็ตต์ เดม่อน + BoxSet 5 ภาค สำหรับนักสะสม กระหึ่มด้วยเสียง THAI DTS **] The Bourne 1-5 Pentalogy (2002 – 2016) เจสัน บอร์น ยอดจารชน..คนอันตราย ภาค 1-5 [Master] [1080p HQ.] [เสียงไทยมาสเตอร์ DTS + ENG DTS ] [บรรยายไทย + อังกฤษ] [เสียง + ซับ From BluRay MASTER : + ซับไทย PGS คมชัดถึงใจ][.MKV]-MiniBD.DTS.1080p. [Modified]-[พากย์ไทย บรรยายไทย]

บอร์น (อังกฤษ: Bourne) เป็นภาพยนตร์ชุดแนวสายลับ/โลดโผน ดัดแปลงจากนวนิยายชุดที่ใช้ชื่อเดียวกันของรอเบิร์ต ลัดลัม ปัจจุบันมีทั้งสิ้น 5 ภาค โดยภาคที่ 1-3 และภาค 5 เป็นเรื่องราวของเจสัน บอร์น (รับบทโดย แม็ตต์ เดม่อน) มือสังหารที่ความจำเสื่อมและต้องหนีจากการตามล่า ส่วนในภาคที่ 4 เป็นเรื่องราวของแอรอน ครอส (รับบทโดย เจเรมี เรนเนอร์) สายลับที่ถูกตามล่าหลังโครงการที่เขาสังกัดอยู่ถูกสั่ง

                                                                                                                                                           เรื่องราวเปิดฉากที่ผู้สูญเสียความทรงจำคนหนึ่ง (แม็ท เดมอน) ได้รับการช่วยชีวิตจากทะเลโดยลูกเรือของเรือหาปลาอิต าลี
เขาอยู่ในสภาพเกือบตายไม่มีสมบัติอะไรเลย มีเพียงลูกกระสุนที่หลังกับหมายเลขบัญชีธนาคารในสวิส ที่ฝังไว้ในสะโพกเท่านั้น
เขาสูญเสียความทรงจำอย่างสิ้นเชิง แต่เขาก็มีทักษะพิเศษ ทั้งภาษาศาสตร์ การต่อสู้และศิลปะการป้องกันตนเองซึ่งสะท้อนอดีตที่น ่ากลัวของเขาในกล่องนิรภัย
ของธนาคารที่สวิสมีพาสปอร์ตประเทศต่างๆ เงินสดก้อนใหญ่ ปืน และชื่อ..เจสัน บอร์น… และที่อยู่ในปารีส สิ่งเหล่านี้
ยังคงเป็นปริศนาสำหรับเขา แต่บอร์นตระหนักในทันทีว่าแม้ว่าเขาจะไม่รู้จักใครเล ย ก็ยังมีคนที่รู้จักเขาและคิดร้ายกับเขา
เมื่อเขาพบกับมารี ครูทซ์ (แฟรนก้า โปเทนเท) บอร์นต้องจ่ายถึง 10,000 เหรียญ ให้มาสำหรับการ ขับรถพาเขาไปปารีส
แต่มารีหารู้ไม่ว่าการเดินทางครั้งนี้จะทำให้ชีวิตขอ งเธอเปลี่ยนแปลงไปโดยสิ้นเชิง ด้วยโครงเรื่องที่ปราดเปรื่อง ฉากแอ็คชั่นต่อเนื่อง
การขับรถไล่ล่าผ่านตัวเมืองปารีสและฉากต่อสู้อันตื่น เต้นระทึกใจ The Bourne Identity จะทำให้คุณลืมหายใจ !!!
Complete name                            : D:หนัง1..The Bourne 1-5 Pentalogy (2002 – 2016) เจสัน บอร์น ยอดจารชน..คนอันตราย ภาค 1-51.The Bourne Identity (2002) ล่าจารชน ยอดคนอันตราย{Super Mini-HD 1080p HQ} The Bourne Identity 2002 BluRay 1080p DTS x264-จิ้งจอกเก้าหาง .mkv
Format                                   : Matroska
Format version                           : Version 4 / Version 2
File size                                : 4.30 GiB
Duration                                 : 1h 58mn
Overall bit rate mode                    : Variable
Overall bit rate                         : 5 191 Kbps
Movie name                               : {Super Mini-HD 1080p HQ} The Bourne Identity 2002 BluRay 1080p DTS x264-จิ้งจอกเก้าหาง
Encoded date                             : UTC 2010-02-22 21:41:31
Writing application                      : mkvmerge v5.9.0 ( On The Loose ) built on Dec  9 2012 15:37:01
Writing library                          : libebml v1.3.0 + libmatroska v1.4.0

Video
ID                                       : 1
Format                                   : AVC
Format/Info                              : Advanced Video Codec
Format profile                           : High@L4.1
Format settings, CABAC                   : Yes
Format settings, ReFrames                : 4 frames
Codec ID                                 : V_MPEG4/ISO/AVC
Duration                                 : 1h 58mn
Bit rate mode                            : Variable
Bit rate                                 : 3 580 Kbps
Maximum bit rate                         : 100.0 Mbps
Width                                    : 1 920 pixels
Height                                   : 816 pixels
Display aspect ratio                     : 2.35:1
Frame rate mode                          : Constant
Frame rate                               : 23.976 fps
Color space                              : YUV
Chroma subsampling                       : 4:2:0
Bit depth                                : 8 bits
Scan type                                : Progressive
Bits/(Pixel*Frame)                       : 0.095
Stream size                              : 2.95 GiB (69%)
Title                                    : {Super Mini-HD 1080p HQ} The Bourne Identity 2002 BluRay 1080p DTS x264-จิ้งจอกเก้าหาง
Writing library                          : x264 core 130 r2273 b3065e6
Encoding settings                        : cabac=1 / ref=4 / deblock=1:0:0 / analyse=0x3:0x133 / me=umh / subme=11 / psy=1 / psy_rd=1.00:0.15 / mixed_ref=1 / me_range=64 / chroma_me=1 / trellis=2 / 8x8dct=1 / cqm=0 / deadzone=21,11 / fast_pskip=1 / chroma_qp_offset=-3 / threads=16 / lookahead_threads=1 / sliced_threads=0 / nr=0 / decimate=1 / interlaced=0 / bluray_compat=0 / constrained_intra=0 / bframes=4 / b_pyramid=2 / b_adapt=2 / b_bias=0 / direct=3 / weightb=1 / open_gop=0 / weightp=2 / keyint=250 / keyint_min=23 / scenecut=40 / intra_refresh=0 / rc_lookahead=100 / rc=2pass / mbtree=1 / bitrate=3580 / ratetol=1.0 / qcomp=0.60 / qpmin=0 / qpmax=69 / qpstep=4 / cplxblur=20.0 / qblur=0.5 / vbv_maxrate=99999 / vbv_bufsize=99999 / nal_hrd=vbr / ip_ratio=1.40 / aq=1:1.00
Language                                 : English
Default                                  : Yes
Forced                                   : No

Audio #1
ID                                       : 2
Format                                   : DTS
Format/Info                              : Digital Theater Systems
Mode                                     : 16
Format settings, Endianness              : Big
Codec ID                                 : A_DTS
Duration                                 : 1h 58mn
Bit rate mode                            : Constant
Bit rate                                 : 768 Kbps
Channel(s)                               : 6 channels
Channel positions                        : Front: L C R, Side: L R, LFE
Sampling rate                            : 48.0 KHz
Bit depth                                : 24 bits
Compression mode                         : Lossy
Stream size                              : 652 MiB (15%)
Title                                    : [THAI DTS FROM BLU-RAY MASTER]
Language                                 : Thai
Default                                  : Yes
Forced                                   : No

Audio #2
ID                                       : 3
Format                                   : DTS
Format/Info                              : Digital Theater Systems
Mode                                     : 16
Format settings, Endianness              : Big
Codec ID                                 : A_DTS
Duration                                 : 1h 58mn
Bit rate mode                            : Constant
Bit rate                                 : 755 Kbps
Channel(s)                               : 6 channels
Channel positions                        : Front: L C R, Side: L R, LFE
Sampling rate                            : 48.0 KHz
Bit depth                                : 24 bits
Compression mode                         : Lossy
Stream size                              : 640 MiB (15%)
Title                                    : [ENGLISH DTS FROM BLU-RAY MASTER]
Language                                 : English
Default                                  : No
Forced                                   : No

Text #1
ID                                       : 4
Format                                   : VobSub
Codec ID                                 : S_VOBSUB
Codec ID/Info                            : The same subtitle format used on DVDs
Title                                    : [SUB THAI 480P FROM BLU-RAY]
Language                                 : Thai
Default                                  : No
Forced                                   : No

                                                                    แมทท์ เดม่อน เจ้าของรางวัลออสการ์ กลับมาถูกไล่ล่าอีกครั้งกับบท เจสัน บอร์น นักฆ่าฝีมือเยี่ยมจากการอบรมของซีไอเอ
ในภาพยนตร์แอ๊คชั่น ระทึกขวัญ แนวสืบสวน หลังจากต้องทุกข์ทรมานจากอาการความจำเสื่อม บอร์นได้ทิ้งอดีตที่ดุเดือดไว้เบื้องหลัง
เพื่อใช้ชีวิตอย่างสามัญกับ มารี แฟนสาว แต่แผนในการใช้ชีวิตอย่างสงบก็ถูกทำลายจากการถูกลอบส ังหาร เขาถูกตามล่า
โดยศัตรูที่เขาไม่รู้จัก บอร์นพิสูจน์ให้เห็นว่าไม่ง่ายเลยที่จะเก็บเขา และไม่ควรที่จะประเมินฝีมือของเขาต่ำเกินไป
The Bourne Supremacy เป็นหนึ่งในสุดยอดภาพยนตร์แอ๊คชั่นรุ่นใหม่ ด้วยความระห่ำของการไล่ล่า
พร้อมด้วยแผนการฆ่าอันแยบยลที่ผสานกันเป็นแอ๊คชั่น ระทึกขวัญที่ทำให้ลืมหายใจได้ !!!
Complete name                            : D:หนัง1..The Bourne 1-5 Pentalogy (2002 – 2016) เจสัน บอร์น ยอดจารชน..คนอันตราย ภาค 1-52.The Bourne Supremacy (2004) สุดยอดเกมล่าจารชน{Super Mini-HD 1080p HQ} The Bourne Supremacy 2004 BluRay 1080p DTS x264-จิ้งจอกเก้าหาง .mkv
Format                                   : Matroska
Format version                           : Version 4 / Version 2
File size                                : 4.30 GiB
Duration                                 : 1h 48mn
Overall bit rate mode                    : Variable
Overall bit rate                         : 5 669 Kbps
Movie name                               : {Super Mini-HD 1080p HQ} The Bourne Supremacy 2004 BluRay 1080p DTS x264-จิ้งจอกเก้าหาง
Encoded date                             : UTC 2010-02-22 21:41:31
Writing application                      : mkvmerge v5.9.0 ( On The Loose ) built on Dec  9 2012 15:37:01
Writing library                          : libebml v1.3.0 + libmatroska v1.4.0

Video
ID                                       : 1
Format                                   : AVC
Format/Info                              : Advanced Video Codec
Format profile                           : High@L4.1
Format settings, CABAC                   : Yes
Format settings, ReFrames                : 4 frames
Codec ID                                 : V_MPEG4/ISO/AVC
Duration                                 : 1h 48mn
Bit rate mode                            : Variable
Bit rate                                 : 4 060 Kbps
Maximum bit rate                         : 100.0 Mbps
Width                                    : 1 920 pixels
Height                                   : 816 pixels
Display aspect ratio                     : 2.35:1
Frame rate mode                          : Constant
Frame rate                               : 23.976 fps
Color space                              : YUV
Chroma subsampling                       : 4:2:0
Bit depth                                : 8 bits
Scan type                                : Progressive
Bits/(Pixel*Frame)                       : 0.108
Stream size                              : 3.06 GiB (71%)
Title                                    : {Super Mini-HD 1080p HQ} The Bourne Supremacy 2004 BluRay 1080p DTS x264-จิ้งจอกเก้าหาง
Writing library                          : x264 core 130 r2273 b3065e6
Encoding settings                        : cabac=1 / ref=4 / deblock=1:0:0 / analyse=0x3:0x133 / me=umh / subme=11 / psy=1 / psy_rd=1.00:0.15 / mixed_ref=1 / me_range=64 / chroma_me=1 / trellis=2 / 8x8dct=1 / cqm=0 / deadzone=21,11 / fast_pskip=1 / chroma_qp_offset=-3 / threads=16 / lookahead_threads=1 / sliced_threads=0 / nr=0 / decimate=1 / interlaced=0 / bluray_compat=0 / constrained_intra=0 / bframes=4 / b_pyramid=2 / b_adapt=2 / b_bias=0 / direct=3 / weightb=1 / open_gop=0 / weightp=2 / keyint=250 / keyint_min=23 / scenecut=40 / intra_refresh=0 / rc_lookahead=100 / rc=2pass / mbtree=1 / bitrate=4060 / ratetol=1.0 / qcomp=0.60 / qpmin=0 / qpmax=69 / qpstep=4 / cplxblur=20.0 / qblur=0.5 / vbv_maxrate=99999 / vbv_bufsize=99999 / nal_hrd=vbr / ip_ratio=1.40 / aq=1:1.00
Language                                 : English
Default                                  : Yes
Forced                                   : No

Audio #1
ID                                       : 2
Format                                   : DTS
Format/Info                              : Digital Theater Systems
Mode                                     : 16
Format settings, Endianness              : Big
Codec ID                                 : A_DTS
Duration                                 : 1h 48mn
Bit rate mode                            : Constant
Bit rate                                 : 768 Kbps
Channel(s)                               : 6 channels
Channel positions                        : Front: L C R, Side: L R, LFE
Sampling rate                            : 48.0 KHz
Bit depth                                : 24 bits
Compression mode                         : Lossy
Stream size                              : 596 MiB (14%)
Title                                    : [THAI DTS FROM BLU-RAY MASTER]
Language                                 : Thai
Default                                  : Yes
Forced                                   : No

Audio #2
ID                                       : 3
Format                                   : DTS
Format/Info                              : Digital Theater Systems
Mode                                     : 16
Format settings, Endianness              : Big
Codec ID                                 : A_DTS
Duration                                 : 1h 48mn
Bit rate mode                            : Constant
Bit rate                                 : 755 Kbps
Channel(s)                               : 6 channels
Channel positions                        : Front: L C R, Side: L R, LFE
Sampling rate                            : 48.0 KHz
Bit depth                                : 24 bits
Compression mode                         : Lossy
Stream size                              : 586 MiB (13%)
Title                                    : [ENGLISH DTS FROM BLU-RAY MASTER]
Language                                 : English
Default                                  : No
Forced                                   : No

Text #1
ID                                       : 4
Format                                   : VobSub
Codec ID                                 : S_VOBSUB
Codec ID/Info                            : The same subtitle format used on DVDs
Title                                    : [SUB THAI 480P FROM BLU-RAY]
Language                                 : Thai
Default                                  : No
Forced                                   : No

Text #2
ID                                       : 5
Format                                   : VobSub
Codec ID                                 : S_VOBSUB
Codec ID/Info                            : The same subtitle format used on DVDs
Title                                    : [SUB THAI 1080P FROM BLU-RAY]
Language                                 : Thai
Default                                  : No
Forced                                   : No

Text #3
ID                                       : 6
Format                                   : PGS
Codec ID                                 : S_HDMV/PGS
Codec ID/Info                            : The same subtitle format used on BDs/HD-DVDs
Title                                    : [SUB THAI PGS FROM BLU-RAY]
Language                                 : Thai
Default                                  : No
Forced                                   : No

Text #4
ID                                       : 7
Format                                   : PGS
Codec ID                                 : S_HDMV/PGS
Codec ID/Info                            : The same subtitle format used on BDs/HD-DVDs
Title                                    : [SUB THAI PGS FROM BLU-RAY] UNDER
Language                                 : Thai
Default                                  : No
Forced                                   : No

Text #5
ID                                       : 8
Format                                   : PGS
Codec ID                                 : S_HDMV/PGS
Codec ID/Info                            : The same subtitle format used on BDs/HD-DVDs
Title                                    : [SUB ENGLISH PGS FROM BLU-RAY]
Language                                 : English
Default                                  : No
Forced                                   : No

Text #6
ID                                       : 9
Format                                   : VobSub
Codec ID                                 : S_VOBSUB
Codec ID/Info                            : The same subtitle format used on DVDs
Title                                    : [SUB ENGLISH 480P FROM BLU-RAY]
Language                                 : English
Default                                  : No
Forced                                   : No


หลังจากรู้อดีตของตัวเอง เจสัน บอร์นถูกล่อให้ออกมาจากที่ซ่อน เมื่อนักข่าวคนหนึ่งขุดคุ้ยข้อมูลของเทรดสโตนองค์กรท ี่สร้างบอร์นขึ้นมา
และได้ปิดตัวลงไป แต่ในขณะเดียวกันข้อมูลลับขององค์กรใหม่ที่น่ากลัวกว ่าเก่าก็ปูดออกมา และพวกเขาพยายามทำทุกอย่างเพื่อสังหารบอร์นให้ได้
ถึงคราวที่บอร์นต้องยุติเรื่องนี้ และค้นหาว่าตัวตนที่แท้จริงของเขาคือใครกันแน่ !!!
Complete name                            : D:หนัง1..The Bourne 1-5 Pentalogy (2002 – 2016) เจสัน บอร์น ยอดจารชน..คนอันตราย ภาค 1-53.The Bourne Ultimatum (2007) ปิดเกมล่าจารชน คนอันตราย{Super Mini-HD 1080p HQ} The Bourne Ultimatum 2007 BluRay 1080p DTS x264-จิ้งจอกเก้าหาง .mkv
Format                                   : Matroska
Format version                           : Version 4 / Version 2
File size                                : 4.31 GiB
Duration                                 : 1h 55mn
Overall bit rate mode                    : Variable
Overall bit rate                         : 5 358 Kbps
Movie name                               : {Super Mini-HD 1080p HQ} The Bourne Ultimatum 2007 BluRay 1080p DTS x264-จิ้งจอกเก้าหาง
Encoded date                             : UTC 2010-02-22 21:41:31
Writing application                      : mkvmerge v5.9.0 ( On The Loose ) built on Dec  9 2012 15:37:01
Writing library                          : libebml v1.3.0 + libmatroska v1.4.0

Video
ID                                       : 1
Format                                   : AVC
Format/Info                              : Advanced Video Codec
Format profile                           : High@L4.1
Format settings, CABAC                   : Yes
Format settings, ReFrames                : 4 frames
Codec ID                                 : V_MPEG4/ISO/AVC
Duration                                 : 1h 55mn
Bit rate mode                            : Variable
Bit rate                                 : 3 750 Kbps
Maximum bit rate                         : 100.0 Mbps
Width                                    : 1 920 pixels
Height                                   : 800 pixels
Display aspect ratio                     : 2.40:1
Frame rate mode                          : Constant
Frame rate                               : 23.976 fps
Color space                              : YUV
Chroma subsampling                       : 4:2:0
Bit depth                                : 8 bits
Scan type                                : Progressive
Bits/(Pixel*Frame)                       : 0.102
Stream size                              : 3.00 GiB (70%)
Title                                    : {Super Mini-HD 1080p HQ} The Bourne Ultimatum 2007 BluRay 1080p DTS x264-จิ้งจอกเก้าหาง
Writing library                          : x264 core 130 r2273 b3065e6
Encoding settings                        : cabac=1 / ref=4 / deblock=1:0:0 / analyse=0x3:0x133 / me=umh / subme=11 / psy=1 / psy_rd=1.00:0.15 / mixed_ref=1 / me_range=64 / chroma_me=1 / trellis=2 / 8x8dct=1 / cqm=0 / deadzone=21,11 / fast_pskip=1 / chroma_qp_offset=-3 / threads=16 / lookahead_threads=1 / sliced_threads=0 / nr=0 / decimate=1 / interlaced=0 / bluray_compat=0 / constrained_intra=0 / bframes=4 / b_pyramid=2 / b_adapt=2 / b_bias=0 / direct=3 / weightb=1 / open_gop=0 / weightp=2 / keyint=250 / keyint_min=23 / scenecut=40 / intra_refresh=0 / rc_lookahead=100 / rc=2pass / mbtree=1 / bitrate=3750 / ratetol=1.0 / qcomp=0.60 / qpmin=0 / qpmax=69 / qpstep=4 / cplxblur=20.0 / qblur=0.5 / vbv_maxrate=99999 / vbv_bufsize=99999 / nal_hrd=vbr / ip_ratio=1.40 / aq=1:1.00
Language                                 : English
Default                                  : Yes
Forced                                   : No

Audio #1
ID                                       : 2
Format                                   : DTS
Format/Info                              : Digital Theater Systems
Mode                                     : 16
Format settings, Endianness              : Big
Codec ID                                 : A_DTS
Duration                                 : 1h 55mn
Bit rate mode                            : Constant
Bit rate                                 : 768 Kbps
Channel(s)                               : 6 channels
Channel positions                        : Front: L C R, Side: L R, LFE
Sampling rate                            : 48.0 KHz
Bit depth                                : 24 bits
Compression mode                         : Lossy
Stream size                              : 633 MiB (14%)
Title                                    : [THAI DTS FROM BLU-RAY MASTER]
Language                                 : Thai
Default                                  : Yes
Forced                                   : No

Audio #2
ID                                       : 3
Format                                   : DTS
Format/Info                              : Digital Theater Systems
Mode                                     : 16
Format settings, Endianness              : Big
Codec ID                                 : A_DTS
Duration                                 : 1h 55mn
Bit rate mode                            : Constant
Bit rate                                 : 755 Kbps
Channel(s)                               : 6 channels
Channel positions                        : Front: L C R, Side: L R, LFE
Sampling rate                            : 48.0 KHz
Bit depth                                : 24 bits
Compression mode                         : Lossy
Stream size                              : 622 MiB (14%)
Title                                    : [ENGLISH DTS FROM BLU-RAY MASTER]
Language                                 : English
Default                                  : No
Forced                                   : No

Text #1
ID                                       : 4
Format                                   : VobSub
Codec ID                                 : S_VOBSUB
Codec ID/Info                            : The same subtitle format used on DVDs
Title                                    : [SUB THAI 480P FROM BLU-RAY]
Language                                 : Thai
Default                                  : No
Forced                                   : No

Text #2
ID                                       : 5
Format                                   : VobSub
Codec ID                                 : S_VOBSUB
Codec ID/Info                            : The same subtitle format used on DVDs
Title                                    : [SUB THAI 1080P FROM BLU-RAY]
Language                                 : Thai
Default                                  : No
Forced                                   : No

Text #3
ID                                       : 6
Format                                   : PGS
Codec ID                                 : S_HDMV/PGS
Codec ID/Info                            : The same subtitle format used on BDs/HD-DVDs
Title                                    : [SUB THAI PGS FROM BLU-RAY]
Language                                 : Thai
Default                                  : No
Forced                                   : No

Text #4
ID                                       : 7
Format                                   : PGS
Codec ID                                 : S_HDMV/PGS
Codec ID/Info                            : The same subtitle format used on BDs/HD-DVDs
Title                                    : [SUB THAI PGS FROM BLU-RAY] UNDER
Language                                 : Thai
Default                                  : No
Forced                                   : No

Text #5
ID                                       : 8
Format                                   : PGS
Codec ID                                 : S_HDMV/PGS
Codec ID/Info                            : The same subtitle format used on BDs/HD-DVDs
Title                                    : [SUB ENGLISH PGS FROM BLU-RAY]
Language                                 : English
Default                                  : No
Forced                                   : No

Text #6
ID                                       : 9
Format                                   : VobSub
Codec ID                                 : S_VOBSUB
Codec ID/Info                            : The same subtitle format used on DVDs
Title                                    : [SUB ENGLISH 480P FROM BLU-RAY]
Language                                 : English
Default                                  : No
Forced                                   : No

                                                                       ผู้อยู่เบื้องหลังความสำเร็จในการสร้างเรื่องราวของห นังชุดบอร์น โทนี่ กิลรอย กลับมาขยายโลกของบอร์น
อีกครั้งในบทต่อมาของภาพยนตร์แอ็คชั่นมันส์เดือดชุดน ี้ The Bourne Legacy จะแนะนำคุณให้รู้จักกับฮีโร่คนใหม่ แอรอน ครอส (เจเรมี่ เรนเนอร์)
ที่ชีวิตของเขาจะเป็นหรือตายนั้นเป็นผลมาจากเหตุการณ ์ในสามภาคแรก
ใน The Bournr Lagacy เจเรมี่ นำทีมดาราชุดใหม่อย่าง ราเชล ไวซ์ และ เอ็ดเวิร์ด นอร์ตัน ประกบกับทีมนักแสดงชุดเดิมจากภาคก่อนๆ
ที่กลับมารับบทเดิมกันอย่างถ้วนหน้าทั้ง อัลเบิร์ต ฟินนี่ย์ โจน อัลเลน เดวิด สแตรทเทิร์น และ สก็อตต์ เกล็นน์ !!!
Complete name                            : D:หนัง1..The Bourne 1-5 Pentalogy (2002 – 2016) เจสัน บอร์น ยอดจารชน..คนอันตราย ภาค 1-54.The Bourne Legacy (2012) พลิกแผนล่ายอดจารชนThe.Bourne.Legacy.2012.1080p.BluRay.DTS.x264-ThinmanSB.mkv
Format                                   : Matroska
Format version                           : Version 4 / Version 2
File size                                : 4.24 GiB
Duration                                 : 2h 14mn
Overall bit rate                         : 4 496 Kbps
Movie name                               : The.Bourne.Legacy.2012.1080p.BluRay.DTS.x264-ThinmanSB
Encoded date                             : UTC 2016-07-25 03:17:35
Writing application                      : mkvmerge v9.3.1 ( Mask Machine ) 64bit
Writing library                          : libebml v1.3.4 + libmatroska v1.4.5
DURATION                                 : 02:02:55.451000000
NUMBER_OF_FRAMES                         : 3174
NUMBER_OF_BYTES                          : 9940073
_STATISTICS_WRITING_APP                  : mkvmerge v9.3.1 ( Mask Machine ) 64bit
_STATISTICS_WRITING_DATE_UTC             : 2016-07-25 03:17:35
_STATISTICS_TAGS                         : BPS DURATION NUMBER_OF_FRAMES NUMBER_OF_BYTES

Video
ID                                       : 1
Format                                   : AVC
Format/Info                              : Advanced Video Codec
Format profile                           : High@L4.1
Format settings, CABAC                   : Yes
Format settings, ReFrames                : 9 frames
Codec ID                                 : V_MPEG4/ISO/AVC
Duration                                 : 2h 14mn
Bit rate                                 : 2 950 Kbps
Width                                    : 1 920 pixels
Height                                   : 800 pixels
Display aspect ratio                     : 2.40:1
Frame rate mode                          : Constant
Frame rate                               : 23.976 fps
Color space                              : YUV
Chroma subsampling                       : 4:2:0
Bit depth                                : 8 bits
Scan type                                : Progressive
Bits/(Pixel*Frame)                       : 0.080
Stream size                              : 2.72 GiB (64%)
Title                                    : The.Bourne.Legacy.2012.1080p.BluRay.DTS.x264-ThinmanSB
Writing library                          : x264 core 146 r2538 121396c
Encoding settings                        : cabac=1 / ref=9 / deblock=1:-3:-3 / analyse=0x3:0x133 / me=tesa / subme=11 / psy=1 / psy_rd=1.00:0.15 / mixed_ref=1 / me_range=32 / chroma_me=1 / trellis=2 / 8x8dct=1 / cqm=0 / deadzone=21,11 / fast_pskip=1 / chroma_qp_offset=-3 / threads=24 / lookahead_threads=4 / sliced_threads=0 / nr=0 / decimate=1 / interlaced=0 / bluray_compat=0 / constrained_intra=0 / bframes=8 / b_pyramid=2 / b_adapt=2 / b_bias=0 / direct=3 / weightb=1 / open_gop=0 / weightp=2 / keyint=250 / keyint_min=23 / scenecut=40 / intra_refresh=0 / rc_lookahead=60 / rc=2pass / mbtree=1 / bitrate=2950 / ratetol=1.0 / qcomp=0.60 / qpmin=0 / qpmax=69 / qpstep=4 / cplxblur=20.0 / qblur=0.5 / ip_ratio=1.40 / aq=1:1.90
Language                                 : English
Default                                  : Yes
Forced                                   : No

Audio #1
ID                                       : 2
Format                                   : DTS
Format/Info                              : Digital Theater Systems
Mode                                     : 16
Format settings, Endianness              : Big
Codec ID                                 : A_DTS
Duration                                 : 2h 14mn
Bit rate mode                            : Constant
Bit rate                                 : 755 Kbps
Channel(s)                               : 6 channels
Channel positions                        : Front: L C R, Side: L R, LFE
Sampling rate                            : 48.0 KHz
Bit depth                                : 24 bits
Compression mode                         : Lossy
Stream size                              : 728 MiB (17%)
Title                                    : ENGLISH DTS @755Kbps
Language                                 : English
Default                                  : Yes
Forced                                   : No

Audio #2
ID                                       : 3
Format                                   : DTS
Format/Info                              : Digital Theater Systems
Mode                                     : 16
Format settings, Endianness              : Big
Codec ID                                 : A_DTS
Duration                                 : 2h 14mn
Bit rate mode                            : Constant
Bit rate                                 : 768 Kbps
Channel(s)                               : 6 channels
Channel positions                        : Front: L C R, Side: L R, LFE
Sampling rate                            : 48.0 KHz
Bit depth                                : 24 bits
Compression mode                         : Lossy
Stream size                              : 741 MiB (17%)
Title                                    : THAI DTS @768Kbps
Language                                 : Thai
Default                                  : No
Forced                                   : No

Text #1
ID                                       : 4
Format                                   : VobSub
Muxing mode                              : zlib
Codec ID                                 : S_VOBSUB
Codec ID/Info                            : The same subtitle format used on DVDs
Title                                    : TH 480P
Language                                 : Thai
Default                                  : Yes
Forced                                   : No

Text #2
ID                                       : 5
Format                                   : VobSub
Muxing mode                              : zlib
Codec ID                                 : S_VOBSUB
Codec ID/Info                            : The same subtitle format used on DVDs
Title                                    : TH 480P
Language                                 : Thai
Default                                  : No
Forced                                   : No

Text #3
ID                                       : 6
Format                                   : VobSub
Muxing mode                              : zlib
Codec ID                                 : S_VOBSUB
Codec ID/Info                            : The same subtitle format used on DVDs
Title                                    : TH 1080P
Language                                 : Thai
Default                                  : No
Forced                                   : No

Text #4
ID                                       : 7
Format                                   : PGS
Muxing mode                              : zlib
Codec ID                                 : S_HDMV/PGS
Codec ID/Info                            : The same subtitle format used on BDs/HD-DVDs
Title                                    : TH PGS
Language                                 : Thai
Default                                  : No
Forced                                   : No

Text #5
ID                                       : 8
Format                                   : PGS
Muxing mode                              : zlib
Codec ID                                 : S_HDMV/PGS
Codec ID/Info                            : The same subtitle format used on BDs/HD-DVDs
Title                                    : EN PGS
Language                                 : English
Default                                  : No
Forced                                   : No


ภาพยนตร์แฟรนไชส์นี้กวาดรายได้จาก 4 ภาคแรก มากกว่า 1.2 พันล้านเหรียญสหรัฐฯ กลับมาคราวนี้ เจสัน บอร์น มาพร้อมกับความทรงจำ
แม้ว่าจะจำได้ทุกอย่าง แต่ก็ไม่ได้รู้ทุกอย่างเสมอไปภาคนี้ทิ้งห่างจากภาคก่ อนถึง 9 ปี
โดย พอล กรีนกราสส์ ผู้กำกับภาพยนตร์บอกว่า กว่าจะกลับคราวนี้ใช้เวลานาน เพราะเรายังไม่ได้บทที่โดนใจ และให้ข้อมูลเพิ่มเติมว่า เจสัน บอร์น ไม่ได้เป็นซุปเปอร์ฮีโร่
จึงไม่ต้องใส่หน้ากากหรือผ้าคลุม เขาเป็นเพียงผู้ชายธรรมดาคนหนึ่ง ผมคิดว่าตอนที่คนดูเจสัน บอร์น พวกเขาสามารถจินตนาการได้ว่าจะตอบโต้กับสถานการณ์
และสภาพแวดล้อมได้อย่างไร มันตื่นเต้นมากเวลาที่คุณเห็นเขาคิดแผนการและเริ่มปฏ ิบัติการตามแผน
ในภาคนี้ แมตต์ เดม่อน จะประกบคู่กับ อลิเชีย วิกันเดอร์ นักแสดงสาวรางวัลออสการ์ปีล่าสุด พร้อมด้วย จูเลีย สไตล์ และทอมมี่ ลี โจนส์
โดย แฟรงค์ มาร์แชล กลับมาดูแลงานสร้างร่วมกับเจฟฟรีย์ ไวเนอร์ จากแคปทิเวท เอนเตอร์เทนเมนท์
นอกจากนี้ กรีนกราสส์, เดม่อน, เกร็กกอรี กู๊ดแมน และเบน สมิธ ยังร่วมสร้างภาพยนตร์เรื่องนี้ด้วย !!!
Complete name                            : D:หนัง1..The Bourne 1-5 Pentalogy (2002 – 2016) เจสัน บอร์น ยอดจารชน..คนอันตราย ภาค 1-55.Jason Bourne (2016) เจสัน บอร์น ยอดจารชนคนอันตราย{Super Mini-HD 1080p HQ}_Jason.Bourne.2016.1080p_DTS.x264..mkv
Format                                   : Matroska
Format version                           : Version 2
File size                                : 4.09 GiB
Duration                                 : 2h 3mn
Overall bit rate                         : 4 754 Kbps
Encoded date                             : UTC 2016-11-19T08:23:14Z
Writing application                      : mkvmerge v5.7.0 ( The Whirlwind ) built on Jul  8 2012 20:08:51
Writing library                          : Lavf55.12.0

Video
ID                                       : 1
Format                                   : AVC
Format/Info                              : Advanced Video Codec
Format profile                           : Main@L4.0
Format settings, CABAC                   : Yes
Format settings, ReFrames                : 4 frames
Muxing mode                              : Header stripping
Codec ID                                 : V_MPEG4/ISO/AVC
Bit rate                                 : 2 383 Kbps
Width                                    : 1 920 pixels
Height                                   : 804 pixels
Display aspect ratio                     : 2.40:1
Frame rate mode                          : Variable
Color space                              : YUV
Chroma subsampling                       : 4:2:0
Bit depth                                : 8 bits
Scan type                                : Progressive
Title                                    : {Super Mini-HD 1080p HQ}_Jason.Bourne.2016.1080p_DTS.x264.mkv
Writing library                          : x264 core 142 r2479 dd79a61
Encoding settings                        : cabac=1 / ref=1 / deblock=1:0:0 / analyse=0x1:0x111 / me=hex / subme=2 / psy=1 / psy_rd=1.00:0.00 / mixed_ref=0 / me_range=16 / chroma_me=1 / trellis=0 / 8x8dct=0 / cqm=0 / deadzone=21,11 / fast_pskip=1 / chroma_qp_offset=0 / threads=6 / lookahead_threads=2 / sliced_threads=0 / nr=0 / decimate=1 / interlaced=0 / bluray_compat=0 / constrained_intra=0 / bframes=3 / b_pyramid=2 / b_adapt=1 / b_bias=0 / direct=1 / weightb=1 / open_gop=0 / weightp=1 / keyint=240 / keyint_min=24 / scenecut=40 / intra_refresh=0 / rc_lookahead=10 / rc=crf / mbtree=1 / crf=23.0 / qcomp=0.60 / qpmin=0 / qpmax=69 / qpstep=4 / vbv_maxrate=20000 / vbv_bufsize=25000 / crf_max=0.0 / nal_hrd=none / filler=0 / ip_ratio=1.40 / aq=1:1.00
Language                                 : English
Default                                  : Yes
Forced                                   : No

Audio #1
ID                                       : 2
Format                                   : DTS
Format/Info                              : Digital Theater Systems
Mode                                     : 16
Format settings, Endianness              : Big
Muxing mode                              : Header stripping
Codec ID                                 : A_DTS
Duration                                 : 2h 3mn
Bit rate mode                            : Constant
Bit rate                                 : 768 Kbps
Channel(s)                               : 6 channels
Channel positions                        : Front: L C R, Side: L R, LFE
Sampling rate                            : 48.0 KHz
Bit depth                                : 24 bits
Compression mode                         : Lossy
Stream size                              : 677 MiB (16%)
Title                                    : Thai DTS 768 Kbps
Language                                 : Thai
Default                                  : Yes
Forced                                   : Yes

Audio #2
ID                                       : 3
Format                                   : DTS
Format/Info                              : Digital Theater Systems
Mode                                     : 16
Format settings, Endianness              : Big
Muxing mode                              : Header stripping
Codec ID                                 : A_DTS
Duration                                 : 2h 3mn
Bit rate mode                            : Constant
Bit rate                                 : 1 509 Kbps
Channel(s)                               : 6 channels
Channel positions                        : Front: L C R, Side: L R, LFE
Sampling rate                            : 48.0 KHz
Bit depth                                : 24 bits
Compression mode                         : Lossy
Stream size                              : 1.30 GiB (32%)
Title                                    : English DTS 1 509 Kbps
Language                                 : English
Default                                  : No
Forced                                   : No

Text #1
ID                                       : 4
Format                                   : PGS
Codec ID                                 : S_HDMV/PGS
Codec ID/Info                            : The same subtitle format used on BDs/HD-DVDs
Language                                 : English
Default                                  : No
Forced                                   : No

Text #2
ID                                       : 5
Format                                   : PGS
Codec ID                                 : S_HDMV/PGS
Codec ID/Info                            : The same subtitle format used on BDs/HD-DVDs
Language                                 : Thai
Default                                  : No
Forced                                   : Yes

Text #3
ID                                       : 6
Format                                   : PGS
Codec ID                                 : S_HDMV/PGS
Codec ID/Info                            : The same subtitle format used on BDs/HD-DVDs
Language                                 : Thai
Default                                  : Yes
Forced                                   : Yes

 

{Super Mini-HD 1080p HQ} The Bourne Identity 2002 BluRay 1080p DTS x264-จิ้งจอกเก้าหาง .mkv – 4.3 GB
{Super Mini-HD 1080p HQ} The Bourne Supremacy 2004 BluRay 1080p DTS x264-จิ้งจอกเก้าหาง .mkv – 4.3 GB
{Super Mini-HD 1080p HQ} The Bourne Ultimatum 2007 BluRay 1080p DTS x264-จิ้งจอกเก้าหาง .mkv – 4.3 GB
The.Bourne.Legacy.2012.1080p.BluRay.DTS.x264-ThinmanSB.mkv – 4.2 GB
{Super Mini-HD 1080p HQ}_Jason.Bourne.2016.1080p_DTS.x264..mkv – 4.1 GB

Facebook Comments

About the author

one4up .com

Add Comment

Click here to post a comment

Advertisement