หนังซูม

[ฝรั่ง]-[ใหม่!!] • [เพิ่มบรรยายไทยภาษามือวานร] • War for the Planet of the Apes (2017) : มหาสงครามพิภพวานร • [* CAMRip.XViD-26k.ThaIRong.SubThai CpT@CtHts *] • [Sound ThaiRong 2.0 + English 2.0] • [Sub Thai] • [Modified] • [พากย์ไทยโรง] • [หนังซูม] • [พากย์ไทยโรง]

War for the Planet of the Apes ผลงานตอนที่ 3 ของแฟรนไชส์เรื่องดัง ซีซาร์และฝูงวานรต้องพบกับปัญหาใหญ่ที่เกิดขึ้นกับกลุ่มมนุษย์ที่นำโดยผู้พันผู้โหดเหี้ยม หลังจากที่ฝูงวานรต้องพบกับความสูญเสียที่เจ็บปวดอย่างคาดไม่ถึง ซีซาร์ต้องต่อสู้กับสัญชาตญาณที่โหดร้ายมากขึ้น และเริ่มต้นการเดินทางแห่งตำนานเพื่อล้างแค้นเผ่าพันธุ์ของเขา เมื่อท้ายที่สุดการเดินทางได้พาพวกเขามาเผชิญหน้ากัน ซีซาร์และผู้พันต้องเผชิญหน้ากัน ในการต่อสู้ครั้งใหญ่ที่จะกำหนดชะตากรรมสายพันธุ์ของพวกเขาและอนาคตของโลก

ผู้กำกับฯ : แมตต์ รีฟส์

นักแสดง: แอนดี้ เซอร์คิส, วูดดี้ ฮาร์เรลสัน, สตีฟ ซาห์น, โทบี้ เคบเบล

 

Format : Matroska
File size : 1.65 GiB
Duration : 2 h 7 min
Overall bit rate : 1 850 kb/s
Movie name : War.For.The.Planet.Of.The.Apes.2017.CAMRip.XViD-26k.ThaIRong.SubThai_CpT@CtHts

Video
ID : 1
Format : MPEG-4 Visual
Format profile : Advanced Simple@L5
Format settings, BVOP : 2
Format settings, QPel : Yes
Format settings, GMC : No warppoints
Format settings, Matrix : Default (H.263)
Muxing mode : Packed bitstream
Codec ID : V_MS/VFW/FOURCC / XVID
Codec ID/Hint : XviD
Duration : 2 h 7 min
Bit rate : 1 494 kb/s
Width : 720 pixels
Height : 320 pixels
Display aspect ratio : 2.25:1
Frame rate mode : Constant
Frame rate : 29.970 (30000/1001) FPS
Color space : YUV
Chroma subsampling : 4:2:0
Bit depth : 8 bits
Scan type : Progressive
Compression mode : Lossy
Bits/(Pixel*Frame) : 0.216
Stream size : 1.33 GiB (81%)
Title : War.For.The.Planet.Of.The.Apes.2017.CAMRip.XViD-26k.ThaIRong.SubThai_CpT@CtHts
Writing library : XviD 67
Language : English
Default : Yes
Forced : No

Audio #1
ID : 2
Format : MPEG Audio
Format version : Version 1
Format profile : Layer 3
Mode : Joint stereo
Mode extension : MS Stereo
Muxing mode : Header stripping
Codec ID : A_MPEG/L3
Codec ID/Hint : MP3
Duration : 2 h 7 min
Bit rate mode : Constant
Bit rate : 128 kb/s
Channel(s) : 2 channels
Sampling rate : 48.0 kHz
Compression mode : Lossy
Delay relative to video : 11 ms
Stream size : 117 MiB (7%)
Title : Mp3 Englisg 2.0
Writing library : LAME3.99.5
Language : English
Default : No
Forced : No

Audio #2
ID : 3
Format : AC-3
Format/Info : Audio Coding 3
Format settings, Endianness : Big
Muxing mode : Header stripping
Codec ID : A_AC3
Duration : 2 h 7 min
Bit rate mode : Constant
Bit rate : 192 kb/s
Channel(s) : 2 channels
Channel positions : Front: L R
Sampling rate : 48.0 kHz
Frame rate : 31.250 FPS (1536 SPF)
Bit depth : 16 bits
Compression mode : Lossy
Stream size : 175 MiB (10%)
Title : AC-3 ThaiRong 2.0 By Captain
Language : Thai
Service kind : Complete Main
Default : Yes
Forced : No

Text #1
ID : 4
Format : PGS
Codec ID : S_HDMV/PGS
Codec ID/Info : Picture based subtitle format used on BDs/HD-DVDs
Title : Thai PGS Yellow
Language : Thai
Default : No
Forced : No

Text #2
ID : 5
Format : VobSub
Codec ID : S_VOBSUB
Codec ID/Info : Picture based subtitle format used on DVDs
Title : Thai 1080p
Language : Thai
Default : Yes
Forced : Yes

Text #3
ID : 6
Format : VobSub
Codec ID : S_VOBSUB
Codec ID/Info : Picture based subtitle format used on DVDs
Title : Thai 720p
Language : Thai
Default : No
Forced : No

Text #4
ID : 7
Format : VobSub
Codec ID : S_VOBSUB
Codec ID/Info : Picture based subtitle format used on DVDs
Title : Thai 420p
Language : Thai
Default : No
Forced : No






War.For.The.Planet.Of.The.Apes.2017.CAMRip.XViD-26k.ThaIRong.SubThai_CpT@CtHts.mkv – 1767776013

Facebook Comments

About the author

one4up .com

Add Comment

Click here to post a comment

Featured

Posts

HD Blu-Ray 1080p

[ฝรั่ง]-ใหม่ร้อนๆ! +[* เสียงไทยมาสเตอร์ *] Sleepless (2017) : คืนเดือด คนระห่ำ [*CtHts@SiamBIT*] • [พากย์ไทย มาสเตอร์ + เสียงอังกฤษ DTS] • [บรรยาย อังกฤษ] • [เสียงไทย MASTER] • [ เล็กพริกขี้หนู 1080p HQ ] Or *• ไฟล์เล็ก 1080p คุณภาพสูง

Advertisement