Boxset DVD CD HD Blu-ray HD Blu-Ray 1080p

[ฝรั่ง]-[Full HD] The Hobbit [Trilogy] [Extended Cut] [ยาวกว่าปกติ รวม 58นาที][1080p] [พากย์ไทย/อังกฤษ] [บรรยาย ไทย/อังกฤษ][Modified]

The Hobbit 1 (Extended Edition) An Unexpected Journey (2012) [1080p]
The Hobbit 2 (Extended Edition) Desolation of Smaug (2013) [1080p]
The Hobbit 3 (Extended Edition) The Battle of The Five Armies (2014) [1080p]


พ่อมดแกนดัล์ฟ แกล้งหลอกบิลโบ แบ๊กกิ้นส์ ฮอบบิทคนหนึ่งให้จัดงานเลี้ยงต้อนรับธอริน
กับผองเพื่อนคนแคระของเขา ที่กำลังตระเตรียมการเดินทาง
ไปยังภูเขาโลนลี่เพื่อชิงอาณาจักรและทรัพย์สมบัติของ เหล่าคนแคระคืนจากมังกรสม็อก
ระหว่างงานเลี้ยง แกนดัล์ฟจึงเผยแผนที่เส้นทางลับในเทือกเขา
และเกลี้ยกล่อมให้บิลโบเข้าร่วมการเดินทางไปด้วยในฐา นะ
“หัวขโมยผู้เก่งกาจ” พวกคนแคระเห็นพ้องด้วย ส่วนบิลโบตกกระไดพลอยโจน
เข้าร่วมการเดินทางไปแบบงุนงง

ทั้งคณะเดินทางเข้าไปในป่า ได้พบกับพวกโทรลล์ ซึ่งแกนดัล์ฟมาช่วยไว้ได้ทัน
แล้วจึงเดินทางเข้าไปในเทือกเขามิสตี้ พวกกอบลินจับตัวพวกเขาไว้ได้
แกนดัล์ฟตามมาช่วยอีกแต่ทั้งคณะก็แตกกระจายหากันไม่พ บ บิลโบหลงจากกลุ่ม
เขาเก็บแหวนวงหนึ่งได้ระหว่างทาง และได้พบกับกอลลัม
สัตว์ประหลาดรูปร่างน่าเกลียดที่อาศัยอยู่ใต้เทือกเข า
ซึ่งท้าให้เขาเล่นเกมทายปัญหามิฉะนั้นจะฆ่าเสีย
บิลโบใช้แหวนวิเศษหลบหนีออกมาได้จนมาพบพวกคนแคระอีกค รั้ง
แล้วทั้งหมดจึงเดินทางต่อเข้าไปในป่าทึบแห่งเมิร์ควู ้ดตามลำพังโดยไม่มีแกนดัล์ฟ
บิลโบได้ช่วยเหลือพวกคนแคระจากแมงมุมยักษ์ และช่วยพวกเขาหลบหนีจากคุก
ของพวกเอลฟ์ป่าได้อีก ทำให้กลายเป็นที่นิยมนับถือมาก

เมื่อเดินทางไปใกล้ภูเขาโลนลี่ ทั้งหมดเข้าไปถึงอาณาจักรมนุษย์ใกล้เลคทาวน์
ซึ่งต้องการความช่วยเหลือจากพวกคนแคระให้ปราบมังกรสม ็อก
เมื่อพวกเขาไปถึงได้พบประตูลับเข้าไปในภูเขา
บิลโบลอบเข้าไปในรังมังกรและขโมยอาร์เคนสโตนออกมาแล้ วแอบเก็บเอาไว้เอง
พร้อมกับสืบรู้จุดอ่อนของมังกร ฝ่ายมังกรเมื่อรู้ตัวก็ไปเผาเมืองเลคทาวน์
เพราะคิดว่าชาวเมืองให้ความช่วยเหลือผู้บุกรุก บิลโบให้ข้อมูลแก่บาร์ด
นักธนู ทำให้เขาสังหารมังกรลงได้

คนแคระรีบไปยึดเมืองในเทือกเขาและหาอาร์เคนสโตน
ฝ่ายเอลฟ์และมนุษย์ชาวเลคทาวน์เรียกร้องขอค่าชดเชยคว ามเสียหาย
และส่วนแบ่งในความช่วยเหลือของพวกตนโดยยกทัพมาล้อม
คนแคระปฏิเสธ และระดมพลพรรคของตนมาจากดินแดนทางเหนือ
บิลโบวางแผนยุติสงครามแย่งชิงสมบัติ จึงนำเพชรอาร์เคนสโตนไปมอบให้มนุษย์
และเอลฟ์ไว้ต่อรองกับคนแคระ ทำให้กษัตริย์เอลฟ์และบาร์ดชื่นชมเขามาก
คนแคระธอรินรู้ก็โกรธบิลโบ แต่ก็บอกว่าจะยอมให้สมบัติแลกกับเพชร

แต่แล้วแกนดัล์ฟปรากฏตัวอีกครั้งพร้อมแจ้งข่าวว่า พวกกอบลินและวอร์กกำลังยกทัพมา
ทำให้คนแคระ มนุษย์ และเอลฟ์จำต้อง รวมพลังกันเพื่อต่อสู้ จนเมื่อกองกำลังของอินทรี
และกองกำลังของบียอร์นยกมาช่วยจึงสามารถเอาชนะได้ สงครามครั้งนี้เรียกว่า
สงครามห้าทัพ ธอรินได้รับบาดเจ็บสาหัสจากการรบ
แต่เขาได้ปรับความเข้าใจกับบิลโบก่อนจะเสียชีวิต เพชรอาร์เคนสโตนถูกฝังพร้อมศพธอริน
ทรัพย์สมบัติในขุนเขาได้จัดแบ่งอย่างยุติธรรม แต่บิลโบไม่ต้องการทรัพย์สมบัติมากมายเหล่านั้น
จึงเดินทางกลับพร้อมของที่ระลึกเพียงเล็กน้อย
แต่นั่นก็มากพอจะทำให้บิลโบกลายเป็นฮอบบิทผู้ร่ำรวยใ นไชร์

 

ภาค The Hobbit 1 (Extended_Edition) An Unexpected Journey (2012) [1080p]

รายละเอียดไฟล์

General
Unique ID : 242453126199200178438590462823245894511 (0xB666C609B6F2ED18BAB881E000FD536F)
Complete name The Hobbit 1 (Extended_Edition)_[2012]_[1080p].mkv
Format : Matroska
Format version : Version 4 / Version 2
File size : 4.25 GiB
Duration : 3h 2mn
Overall bit rate : 3 335 Kbps
Encoded date : UTC 2010-02-22 21:41:31
Writing application : mkvmerge v5.9.0 ( On The Loose ) built on Dec 9 2012 15:37:01
Writing library : libebml v1.3.0 + libmatroska v1.4.0

Video
ID : 1
Format : AVC
Format/Info : Advanced Video Codec
Format profile : High@L4.0
Format settings, CABAC : Yes
Format settings, ReFrames : 4 frames
Codec ID : V_MPEG4/ISO/AVC
Duration : 3h 2mn
Bit rate : 2 013 Kbps
Width : 1 920 pixels
Height : 800 pixels
Display aspect ratio : 2.40:1
Frame rate mode : Constant
Frame rate : 23.976 fps
Color space : YUV
Chroma subsampling : 4:2:0
Bit depth : 8 bits
Scan type : Progressive
Bits/(Pixel*Frame) : 0.055
Stream size : 2.63 GiB (62%)

Writing library : x264 core 120
Encoding settings : cabac=1 / ref=3 / deblock=1:0:0 / analyse=0x3:0x113
/ me=umh / subme=10 / psy=1 / psy_rd=1.00:0.00 / mixed_ref=1
/ me_range=24 / chroma_me=1 / trellis=2 / 8x8dct=1 / cqm=0 / deadzone=21,11
/ fast_pskip=1 / chroma_qp_offset=-2 / threads=12 / sliced_threads=0 / nr=0
/ decimate=1 / interlaced=0 / bluray_compat=0 / constrained_intra=0
/ bframes=5 / b_pyramid=2 / b_adapt=2 / b_bias=0 / direct=1 / weightb=1
/ open_gop=0 / weightp=2 / keyint=240 / keyint_min=24 / scenecut=40
/ intra_refresh=0 / rc_lookahead=50 / rc=2pass / mbtree=1 / bitrate=2013
/ ratetol=1.0 / qcomp=0.60 / qpmin=3 / qpmax=69 / qpstep=4 / cplxblur=20.0
/ qblur=0.5 / ip_ratio=1.40 / aq=1:1.00
Language : English
Default : Yes
Forced : No
Color primaries : BT.709
Transfer characteristics : BT.709
Matrix coefficients : BT.709

Audio #1
ID : 2
Format : DTS
Format/Info : Digital Theater Systems
Mode : 16
Format settings, Endianness : Big
Codec ID : A_DTS
Duration : 3h 2mn
Bit rate mode : Constant
Bit rate : 755 Kbps
Channel(s) : 6 channels
Channel positions : Front: L C R, Side: L R, LFE
Sampling rate : 48.0 KHz
Bit depth : 24 bits
Compression mode : Lossy
Stream size : 985 MiB (23%)
Title : English DTS
Language : English
Default : No
Forced : No

Audio #2
ID : 3
Format : AC-3
Format/Info : Audio Coding 3
Mode extension : CM (complete main)
Format settings, Endianness : Big
Codec ID : A_AC3
Duration : 3h 2mn
Bit rate mode : Constant
Bit rate : 448 Kbps
Channel(s) : 6 channels
Channel positions : Front: L C R, Side: L R, LFE
Sampling rate : 48.0 KHz
Bit depth : 16 bits
Compression mode : Lossy
Stream size : 585 MiB (13%)
Title : Thai 5.1 by junjao
Language : Thai
Default : Yes
Forced : Yes

Text #1
ID : 4
Format : VobSub
Codec ID : S_VOBSUB
Codec ID/Info : The same subtitle format used on DVDs
Title : Thai 480p From BluRay Master
Language : Thai
Default : No
Forced : No

Text #2
ID : 5
Format : VobSub
Codec ID : S_VOBSUB
Codec ID/Info : The same subtitle format used on DVDs
Title : Thai 720p From BluRay Master
Language : Thai
Default : No
Forced : No

Text #3
ID : 6
Format : VobSub
Codec ID : S_VOBSUB
Codec ID/Info : The same subtitle format used on DVDs
Title : Thai 1080p From BluRay Master
Language : Thai
Default : Yes
Forced : Yes

Text #4
ID : 7
Format : VobSub
Codec ID : S_VOBSUB
Codec ID/Info : The same subtitle format used on DVDs
Title : Thai 1080p From BluRay Master [Out]
Language : Thai
Default : No
Forced : No

Text #5
ID : 8
Format : VobSub
Codec ID : S_VOBSUB
Codec ID/Info : The same subtitle format used on DVDs
Title : Thai 1080p From BluRay Master [BIG]
Language : Thai
Default : No
Forced : No

Text #6
ID : 9
Format : PGS
Codec ID : S_HDMV/PGS
Codec ID/Info : The same subtitle format used on BDs/HD-DVDs
Title : Thai PGS BluRay Master
Language : Thai
Default : No
Forced : No

Text #7
ID : 10
Format : PGS
Codec ID : S_HDMV/PGS
Codec ID/Info : The same subtitle format used on BDs/HD-DVDs
Title : Thai PGS BluRay Master Out
Language : Thai
Default : No
Forced : No

Text #8
ID : 11
Format : VobSub
Codec ID : S_VOBSUB
Codec ID/Info : The same subtitle format used on DVDs
Title : English
Language : English
Default : No
Forced : No

ภาค The Hobbit 2 (Extended Edition) Desolation of Smaug (2013) [1080p]

รายละเอียดไฟล์

General
Unique ID : 219027464367459237458290788245687720961 (0xA4C727BCF2635FD0AD7BFEA93F1B5C01)
Complete name The Hobbit 2 The Desolation of Smaug (2013) Extended Cut [1080p].mkv
Format : Matroska
Format version : Version 4 / Version 2
File size : 2.56 GiB
Duration : 3h 6mn
Overall bit rate : 1 968 Kbps
Movie name : The Hobbit The Desolation of Smaug 2013 EXTENDED1080p BluRay x264
Encoded date : UTC 2016-01-25 21:23:02
Writing application : mkvmerge v8.3.0 ( Over the Horizon ) 64bit
Writing library : libebml v1.3.1 + libmatroska v1.4.2
DURATION : 02:54:57.127000000
NUMBER_OF_FRAMES : 2287
NUMBER_OF_BYTES : 56059
_STATISTICS_WRITING_APP : mkvmerge v8.3.0 ( Over the Horizon ) 64bit
_STATISTICS_WRITING_DATE_UTC : 2016-01-25 21:23:02
_STATISTICS_TAGS : BPS DURATION NUMBER_OF_FRAMES NUMBER_OF_BYTES

Video
ID : 1
Format : AVC
Format/Info : Advanced Video Codec
Format profile : High@L4.1
Format settings, CABAC : Yes
Format settings, ReFrames : 4 frames
Codec ID : V_MPEG4/ISO/AVC
Duration : 3h 6mn
Nominal bit rate : 1 648 Kbps
Width : 1 920 pixels
Height : 800 pixels
Display aspect ratio : 2.40:1
Frame rate mode : Constant
Frame rate : 23.976 fps
Color space : YUV
Chroma subsampling : 4:2:0
Bit depth : 8 bits
Scan type : Progressive
Bits/(Pixel*Frame) : 0.045
Writing library : x264 core 135 r2345 f0c1c53
Encoding settings : cabac=1 / ref=3 / deblock=1:-1:-1 / analyse=0x3:0x113
/ me=umh / subme=10 / psy=1 / psy_rd=0.00:0.00 / mixed_ref=1
/ me_range=32 / chroma_me=1 / trellis=2 / 8x8dct=1 / cqm=0
/ deadzone=21,11 / fast_pskip=0 / chroma_qp_offset=0 / threads=12
/ lookahead_threads=2 / sliced_threads=0 / nr=0 / decimate=1 / interlaced=0 / bluray_compat=0 / constrained_intra=0 / bframes=8 / b_pyramid=2 / b_adapt=2
/ b_bias=0 / direct=3 / weightb=1 / open_gop=0 / weightp=2 / keyint=250
/ keyint_min=25 / scenecut=40 / intra_refresh=0 / rc_lookahead=60
/ rc=2pass / mbtree=1 / bitrate=1648 / ratetol=1.0 / qcomp=0.60 / qpmin=10
/ qpmax=51 / qpstep=4 / cplxblur=20.0 / qblur=0.5 / ip_ratio=1.40 / aq=1:1.00
Default : Yes
Forced : No

Audio #1
ID : 2
Format : AAC
Format/Info : Advanced Audio Codec
Format profile : HE-AAC / LC
Codec ID : A_AAC
Duration : 3h 6mn
Channel(s) : 6 channels
Channel positions : Front: L C R, Side: L R, LFE
Sampling rate : 48.0 KHz / 24.0 KHz
Compression mode : Lossy
Language : English
Default : Yes
Forced : No

Audio #2
ID : 3
Format : AAC
Format/Info : Advanced Audio Codec
Format profile : LC
Codec ID : A_AAC
Duration : 3h 6mn
Channel(s) : 2 channels
Channel positions : Front: L R
Sampling rate : 44.1 KHz
Compression mode : Lossy
Language : Thai
Default : No
Forced : No

Text #1
ID : 4
Format : UTF-8
Codec ID : S_TEXT/UTF8
Codec ID/Info : UTF-8 Plain Text
Language : Thai
Default : Yes
Forced : No

Forced : No

 

ภาค The Hobbit 3 (Extended Edition) The Battle of The Five Armies (2014) [1080p]

รายละเอียดไฟล์

General
Unique ID : 210222940965709998837705192215183117615 (0x9E277738228AF8DB8B7A1CFDF7104D2F)
Complete name The Hobbit 3 The.Battle.of.The.Five.Armies.2014.Extended.1080p. BrRip.DTS.x264.mkv
Format : Matroska
Format version : Version 4 / Version 2
File size : 5.15 GiB
Duration : 2h 44mn
Overall bit rate : 4 495 Kbps
Movie name : {MINI Super-HQ}_The.Hobbit.The.Battle.of.The.Five.Armies.2014. Extended.1080p.BrRip.DTS.x264
Encoded date : UTC 2010-02-22 21:41:31
Writing application : mkvmerge v5.9.0 ( On The Loose ) built on Dec 9 2012 15:37:01
Writing library : libebml v1.3.0 + libmatroska v1.4.0

Video
ID : 1
Format : AVC
Format/Info : Advanced Video Codec
Format profile : High@L4.0
Format settings, CABAC : Yes
Format settings, ReFrames : 4 frames
Codec ID : V_MPEG4/ISO/AVC
Duration : 2h 44mn
Bit rate : 3 033 Kbps
Width : 1 920 pixels
Height : 800 pixels
Display aspect ratio : 2.40:1
Frame rate mode : Constant
Frame rate : 23.976 fps
Color space : YUV
Chroma subsampling : 4:2:0
Bit depth : 8 bits
Scan type : Progressive
Bits/(Pixel*Frame) : 0.082
Stream size : 3.45 GiB (67%)
Title : {MINI Super-HQ}_The.Hobbit.The.Battle.of.The.Five.Armies.2014. Extended.1080p.BrRip.DTS.x264
Writing library : x264 core 130 r2273 b3065e6
Encoding settings : cabac=1 / ref=4 / deblock=1:0:0 / analyse=0x3:0x113
/ me=umh / subme=11 / psy=1 / psy_rd=1.00:0.00 / mixed_ref=1
/ me_range=64 / chroma_me=1 / trellis=2 / 8x8dct=1 / cqm=0 / deadzone=21,11
/ fast_pskip=1 / chroma_qp_offset=-2 / threads=10 / lookahead_threads=1
/ sliced_threads=0 / nr=0 / decimate=1 / interlaced=0 / bluray_compat=0 / constrained_intra=0 / bframes=4 / b_pyramid=2 / b_adapt=2 / b_bias=0
/ direct=1 / weightb=1 / open_gop=0 / weightp=2 / keyint=240 / keyint_min=24
/ scenecut=40 / intra_refresh=0 / rc_lookahead=40 / rc=2pass / mbtree=1
/ bitrate=3033 / ratetol=1.0 / qcomp=0.60 / qpmin=0 / qpmax=69 / qpstep=4
/ cplxblur=20.0 / qblur=0.5 / ip_ratio=1.40 / aq=1:1.00
Language : English
Default : Yes
Forced : No
Color primaries : BT.709
Transfer characteristics : BT.709
Matrix coefficients : BT.709

Audio #1
ID : 2
Format : AC-3
Format/Info : Audio Coding 3
Mode extension : CM (complete main)
Format settings, Endianness : Big
Codec ID : A_AC3
Duration : 2h 44mn
Bit rate mode : Constant
Bit rate : 640 Kbps
Channel(s) : 6 channels
Channel positions : Front: L C R, Side: L R, LFE
Sampling rate : 48.0 KHz
Bit depth : 16 bits
Compression mode : Lossy
Stream size : 751 MiB (14%)
Title : Thai By Junjao
Language : Thai
Default : Yes
Forced : Yes

Audio #2
ID : 3
Format : DTS
Format/Info : Digital Theater Systems
Mode : 16
Format settings, Endianness : Big
Codec ID : A_DTS
Duration : 2h 44mn
Bit rate mode : Constant
Bit rate : 755 Kbps
Channel(s) : 6 channels
Channel positions : Front: L C R, Side: L R, LFE
Sampling rate : 48.0 KHz
Bit depth : 24 bits
Compression mode : Lossy
Stream size : 885 MiB (17%)
Title : English DTS
Language : English
Default : No
Forced : No

Text #1
ID : 4
Format : VobSub
Codec ID : S_VOBSUB
Codec ID/Info : The same subtitle format used on DVDs
Title : Thai 480p
Language : Thai
Default : No
Forced : No

Text #2
ID : 5
Format : VobSub
Codec ID : S_VOBSUB
Codec ID/Info : The same subtitle format used on DVDs
Title : Thai 720p
Language : Thai
Default : No
Forced : No

Text #3
ID : 6
Format : VobSub
Codec ID : S_VOBSUB
Codec ID/Info : The same subtitle format used on DVDs
Title : Thai 1080p BluRay Master
Language : Thai
Default : Yes
Forced : Yes

Text #4
ID : 7
Format : VobSub
Codec ID : S_VOBSUB
Codec ID/Info : The same subtitle format used on DVDs
Title : Thai 1080p Yellow
Language : Thai
Default : No
Forced : No

Text #5
ID : 8
Format : VobSub
Codec ID : S_VOBSUB
Codec ID/Info : The same subtitle format used on DVDs
Title : Thai 1080p Out
Language : Thai
Default : No
Forced : No

Text #6
ID : 9
Format : VobSub
Codec ID : S_VOBSUB
Codec ID/Info : The same subtitle format used on DVDs
Title : Thai 1080p BIG
Language : Thai
Default : No
Forced : No

Text #7
ID : 10
Format : VobSub
Codec ID : S_VOBSUB
Codec ID/Info : The same subtitle format used on DVDs
Title : Thai 1080p Out [BIG]
Language : Thai
Default : No
Forced : No

Text #8
ID : 11
Format : PGS
Codec ID : S_HDMV/PGS
Codec ID/Info : The same subtitle format used on BDs/HD-DVDs
Title : Thai PGS
Language : Thai
Default : No
Forced : No

Text #9
ID : 12
Format : PGS
Codec ID : S_HDMV/PGS
Codec ID/Info : The same subtitle format used on BDs/HD-DVDs
Title : Thai PGS Out
Language : Thai
Default : No
Forced : No

Text #10
ID : 13
Format : VobSub
Codec ID : S_VOBSUB
Codec ID/Info : The same subtitle format used on DVDs
Title : English
Language : English
Default : No
Forced : No


The Hobbit 1 (Extended_Edition) An Unexpected Journey (2012) [1080p].mkv – 4565831363
The Hobbit 2 (Extended Edition) Desolation of Smaug (2013) [1080p].mkv – 2753812406
The Hobbit 3 (Extended Edition) The Battle of The Five Armies (2014) [1080p].mkv – 5531175065

Facebook Comments

About the author

one4up .com

Add Comment

Click here to post a comment

Featured

Posts

HD Blu-Ray 1080p

[ฝรั่ง]-ใหม่ร้อนๆ! +[* เสียงไทยมาสเตอร์ *] Sleepless (2017) : คืนเดือด คนระห่ำ [*CtHts@SiamBIT*] • [พากย์ไทย มาสเตอร์ + เสียงอังกฤษ DTS] • [บรรยาย อังกฤษ] • [เสียงไทย MASTER] • [ เล็กพริกขี้หนู 1080p HQ ] Or *• ไฟล์เล็ก 1080p คุณภาพสูง

Advertisement