Boxset DVD CD HD Blu-ray HD Blu-Ray 1080p

[ฝรั่ง]-{หนังดีๆ จัดตามคำขอแบบคอลเล็คชั่น 6 ภาค }{Super Mini-HD 1080p HQ} The Lord of the Rings 2001-2014 Hexalogy BluRay 1080p DTS x264-จิ้งจอกเก้าหาง{อภินิหารแหวนครองพิภพ }{เสียง-ซับ ไทย อังกฤษ}-Encode.H.264.1080p. [Modified]-[พากย์ไทย บรรยายไทย]

***** Lord Of The Rings อภินิหารแหวนครองพิภพ *****

รายละเอียดเรื่องย่อ/Synopsis
ในมัชฌิมโลก ในยุคก่อนประวัติศาสตร์ ลอร์ดผู้หนึ่งได้รวบรวมพลังแห่งความชั่วร้ายทุกอย่าง รอบตัวเขา โดยหวังว่าสักวันหนึ่งจะทำลายล้างอารยธรรมที่มีอยู่ท ุกหนแห่งให้ราบคาบ เขายังขาดอีกเพียงสิ่งเดียวคือ แหวนวงหนึ่งที่หายไป ซึ่งหากได้กลับคืนมา เขาจะสามารถพลิกโลกให้กลับสู่ยุคมืดอีกครั้ง แต่โชคชะตาได้ลิขิต ให้มีสิ่งมีชีวิตเพียงผู้เดียวเท่านั้น ที่สามารถจะหาแหวนวงนี้ได้พบ ซึ่งผู้นั้นคือ ฮ็อบบิทหนุ่มที่ชื่อ โฟรโด แบ็กกินส์ เขาจะสามารถช่วยปกป้องให้อารยธรรมของโลกดำเนินสืบต่อ ไปได้หรือไม่? …

Complete name {Super Mini-HD 1080p HQ} The Lord of the Rings 2001 BluRay 1080p DTS x264-จิ้งจอกเก้าหาง.mkv
Format : Matroska
File size : 5.94 GiB
Duration : 2h 58mn
Overall bit rate : 4 766 Kbps
Movie name : {Super Mini-HD 1080p HQ} The Lord of the Rings 2001 BluRay 1080p DTS x264-จิ้งจอกเก้าหาง
Encoded date : UTC 2010-02-22 21:41:31
Writing application : mkvmerge v5.9.0 ( On The Loose ) built on Dec 9 2012 15:37:01
Writing library : libebml v1.3.0 + libmatroska v1.4.0

Video
ID : 1
Format : AVC
Format/Info : Advanced Video Codec
Format profile : High@L4.1
Format settings, CABAC : Yes
Format settings, ReFrames : 4 frames
Codec ID : V_MPEG4/ISO/AVC
Duration : 2h 58mn
Bit rate mode : Variable
Bit rate : 3 500 Kbps
Maximum bit rate : 100.0 Mbps
Width : 1 920 pixels
Height : 800 pixels
Display aspect ratio : 2.40:1
Frame rate : 23.976 fps
Color space : YUV
Chroma subsampling : 4:2:0
Bit depth : 8 bits
Scan type : Progressive
Bits/(Pixel*Frame) : 0.095
Stream size : 4.32 GiB (73%)
Title : {Super Mini-HD 1080p HQ} The Lord of the Rings 2001 BluRay 1080p DTS x264-จิ้งจอกเก้าหาง
Writing library : x264 core 130 r2273 b3065e6
Encoding settings : cabac=1 / ref=4 / deblock=1:0:0 / analyse=0x3:0x133 / me=umh / subme=11 / psy=1 / psy_rd=1.00:0.15 / mixed_ref=1 / me_range=64 / chroma_me=1 / trellis=2 / 8x8dct=1 / cqm=0 / deadzone=21,11 / fast_pskip=1 / chroma_qp_offset=-3 / threads=16 / lookahead_threads=1 / sliced_threads=0 / nr=0 / decimate=1 / interlaced=0 / bluray_compat=0 / constrained_intra=0 / bframes=4 / b_pyramid=2 / b_adapt=2 / b_bias=0 / direct=3 / weightb=1 / open_gop=0 / weightp=2 / keyint=250 / keyint_min=23 / scenecut=40 / intra_refresh=0 / rc_lookahead=100 / rc=2pass / mbtree=1 / bitrate=3500 / ratetol=1.0 / qcomp=0.60 / qpmin=0 / qpmax=69 / qpstep=4 / cplxblur=20.0 / qblur=0.5 / vbv_maxrate=99999 / vbv_bufsize=99999 / nal_hrd=vbr / ip_ratio=1.40 / aq=1:1.00
Language : English

Audio #1
ID : 2
Format : AC-3
Format/Info : Audio Coding 3
Mode extension : CM (complete main)
Codec ID : A_AC3
Duration : 2h 58mn
Bit rate mode : Constant
Bit rate : 448 Kbps
Channel(s) : 6 channels
Channel positions : Front: L C R, Side: L R, LFE
Sampling rate : 48.0 KHz
Bit depth : 16 bits
Compression mode : Lossy
Stream size : 572 MiB (9%)
Title : [THAI AC3 FROM BLU-RAY MASTER]
Language : Thai

Audio #2
ID : 3
Format : DTS
Format/Info : Digital Theater Systems
Codec ID : A_DTS
Duration : 2h 58mn
Bit rate mode : Constant
Bit rate : 755 Kbps
Channel(s) : 6 channels
Channel positions : Front: L C R, Side: L R, LFE
Sampling rate : 48.0 KHz
Bit depth : 24 bits
Compression mode : Lossy
Stream size : 963 MiB (16%)
Title : ENG DTS
Language : English

Text #1
ID : 4
Format : VobSub
Codec ID : S_VOBSUB
Codec ID/Info : The same subtitle format used on DVDs
Title : [SUB THAI 480P FROM BLU-RAY]
Language : Thai

Text #2
ID : 5
Format : VobSub
Codec ID : S_VOBSUB
Codec ID/Info : The same subtitle format used on DVDs
Title : [SUB THAI 1080P FROM BLU-RAY]
Language : Thai

Text #3
ID : 6
Format : PGS
Codec ID : S_HDMV/PGS
Codec ID/Info : The same subtitle format used on BDs/HD-DVDs
Title : [SUB THAI PGS FROM BLU-RAY]
Language : Thai

Text #4
ID : 7
Format : PGS
Codec ID : S_HDMV/PGS
Codec ID/Info : The same subtitle format used on BDs/HD-DVDs
Title : [SUB THAI PGS FROM BLU-RAY] UNDER
Language : Thai

Text #5
ID : 8
Format : PGS
Codec ID : S_HDMV/PGS
Codec ID/Info : The same subtitle format used on BDs/HD-DVDs
Title : [SUB ENGLISH PGS FROM BLU-RAY]
Language : English

Text #6
ID : 9
Format : VobSub
Codec ID : S_VOBSUB
Codec ID/Info : The same subtitle format used on DVDs
Title : [SUB ENGLISH 480P FROM BLU-RAY]
Language : English

************************************************** *****************

Complete name {Super Mini-HD 1080p HQ} The Lord of the Rings 2002 BluRay 1080p DTS x264-จิ้งจอกเก้าหาง.mkv
Format : Matroska
File size : 5.97 GiB
Duration : 2h 59mn
Overall bit rate : 4 761 Kbps
Movie name : {Super Mini-HD 1080p HQ} The Lord of the Rings 2002 BluRay 1080p DTS x264-จิ้งจอกเก้าหาง
Encoded date : UTC 2010-02-22 21:41:31
Writing application : mkvmerge v5.9.0 ( On The Loose ) built on Dec 9 2012 15:37:01
Writing library : libebml v1.3.0 + libmatroska v1.4.0

Video
ID : 1
Format : AVC
Format/Info : Advanced Video Codec
Format profile : High@L4.1
Format settings, CABAC : Yes
Format settings, ReFrames : 4 frames
Codec ID : V_MPEG4/ISO/AVC
Duration : 2h 59mn
Bit rate mode : Variable
Bit rate : 3 500 Kbps
Maximum bit rate : 100.0 Mbps
Width : 1 920 pixels
Height : 800 pixels
Display aspect ratio : 2.40:1
Frame rate : 23.976 fps
Color space : YUV
Chroma subsampling : 4:2:0
Bit depth : 8 bits
Scan type : Progressive
Bits/(Pixel*Frame) : 0.095
Stream size : 4.34 GiB (73%)
Title : {Super Mini-HD 1080p HQ} The Lord of the Rings 2002 BluRay 1080p DTS x264-จิ้งจอกเก้าหาง
Writing library : x264 core 130 r2273 b3065e6
Encoding settings : cabac=1 / ref=4 / deblock=1:0:0 / analyse=0x3:0x133 / me=umh / subme=11 / psy=1 / psy_rd=1.00:0.15 / mixed_ref=1 / me_range=64 / chroma_me=1 / trellis=2 / 8x8dct=1 / cqm=0 / deadzone=21,11 / fast_pskip=1 / chroma_qp_offset=-3 / threads=16 / lookahead_threads=1 / sliced_threads=0 / nr=0 / decimate=1 / interlaced=0 / bluray_compat=0 / constrained_intra=0 / bframes=4 / b_pyramid=2 / b_adapt=2 / b_bias=0 / direct=3 / weightb=1 / open_gop=0 / weightp=2 / keyint=250 / keyint_min=23 / scenecut=40 / intra_refresh=0 / rc_lookahead=100 / rc=2pass / mbtree=1 / bitrate=3500 / ratetol=1.0 / qcomp=0.60 / qpmin=0 / qpmax=69 / qpstep=4 / cplxblur=20.0 / qblur=0.5 / vbv_maxrate=99999 / vbv_bufsize=99999 / nal_hrd=vbr / ip_ratio=1.40 / aq=1:1.00
Language : English

Audio #1
ID : 2
Format : AC-3
Format/Info : Audio Coding 3
Mode extension : CM (complete main)
Codec ID : A_AC3
Duration : 2h 59mn
Bit rate mode : Constant
Bit rate : 448 Kbps
Channel(s) : 6 channels
Channel positions : Front: L C R, Side: L R, LFE
Sampling rate : 48.0 KHz
Bit depth : 16 bits
Compression mode : Lossy
Stream size : 575 MiB (9%)
Title : [THAI AC3 FROM BLU-RAY MASTER]
Language : Thai

Audio #2
ID : 3
Format : DTS
Format/Info : Digital Theater Systems
Codec ID : A_DTS
Duration : 2h 59mn
Bit rate mode : Constant
Bit rate : 755 Kbps
Channel(s) : 6 channels
Channel positions : Front: L C R, Side: L R, LFE
Sampling rate : 48.0 KHz
Bit depth : 24 bits
Compression mode : Lossy
Stream size : 968 MiB (16%)
Title : ENG DTS
Language : English

Text #1
ID : 4
Format : VobSub
Codec ID : S_VOBSUB
Codec ID/Info : The same subtitle format used on DVDs
Title : [SUB THAI 480P FROM BLU-RAY]
Language : Thai

Text #2
ID : 5
Format : VobSub
Codec ID : S_VOBSUB
Codec ID/Info : The same subtitle format used on DVDs
Title : [SUB THAI 1080P FROM BLU-RAY]
Language : Thai

Text #3
ID : 6
Format : PGS
Codec ID : S_HDMV/PGS
Codec ID/Info : The same subtitle format used on BDs/HD-DVDs
Title : [SUB THAI PGS FROM BLU-RAY]
Language : Thai

Text #4
ID : 7
Format : PGS
Codec ID : S_HDMV/PGS
Codec ID/Info : The same subtitle format used on BDs/HD-DVDs
Title : [SUB THAI PGS FROM BLU-RAY] UNDER
Language : Thai

Text #5
ID : 8
Format : PGS
Codec ID : S_HDMV/PGS
Codec ID/Info : The same subtitle format used on BDs/HD-DVDs
Title : [SUB ENGLISH PGS FROM BLU-RAY]
Language : English

Text #6
ID : 9
Format : VobSub
Codec ID : S_VOBSUB
Codec ID/Info : The same subtitle format used on DVDs
Title : [SUB ENGLISH 480P FROM BLU-RAY]
Language : English

************************************************** **************

Complete name {Super Mini-HD 1080p HQ} The Lord of the Rings 2003 BluRay 1080p DTS x264-จิ้งจอกเก้าหาง.mkv
Format : Matroska
File size : 6.67 GiB
Duration : 3h 21mn
Overall bit rate : 4 750 Kbps
Movie name : {Super Mini-HD 1080p HQ} The Lord of the Rings 2003 BluRay 1080p DTS x264-จิ้งจอกเก้าหาง
Encoded date : UTC 2010-02-22 21:41:31
Writing application : mkvmerge v5.9.0 ( On The Loose ) built on Dec 9 2012 15:37:01
Writing library : libebml v1.3.0 + libmatroska v1.4.0

Video
ID : 1
Format : AVC
Format/Info : Advanced Video Codec
Format profile : High@L4.1
Format settings, CABAC : Yes
Format settings, ReFrames : 4 frames
Codec ID : V_MPEG4/ISO/AVC
Duration : 3h 21mn
Bit rate mode : Variable
Bit rate : 3 500 Kbps
Maximum bit rate : 100.0 Mbps
Width : 1 920 pixels
Height : 800 pixels
Display aspect ratio : 2.40:1
Frame rate : 23.976 fps
Color space : YUV
Chroma subsampling : 4:2:0
Bit depth : 8 bits
Scan type : Progressive
Bits/(Pixel*Frame) : 0.095
Stream size : 4.85 GiB (73%)
Title : {Super Mini-HD 1080p HQ} The Lord of the Rings 2003 BluRay 1080p DTS x264-จิ้งจอกเก้าหาง
Writing library : x264 core 130 r2273 b3065e6
Encoding settings : cabac=1 / ref=4 / deblock=1:0:0 / analyse=0x3:0x133 / me=umh / subme=11 / psy=1 / psy_rd=1.00:0.15 / mixed_ref=1 / me_range=64 / chroma_me=1 / trellis=2 / 8x8dct=1 / cqm=0 / deadzone=21,11 / fast_pskip=1 / chroma_qp_offset=-3 / threads=16 / lookahead_threads=1 / sliced_threads=0 / nr=0 / decimate=1 / interlaced=0 / bluray_compat=0 / constrained_intra=0 / bframes=4 / b_pyramid=2 / b_adapt=2 / b_bias=0 / direct=3 / weightb=1 / open_gop=0 / weightp=2 / keyint=250 / keyint_min=23 / scenecut=40 / intra_refresh=0 / rc_lookahead=100 / rc=2pass / mbtree=1 / bitrate=3500 / ratetol=1.0 / qcomp=0.60 / qpmin=0 / qpmax=69 / qpstep=4 / cplxblur=20.0 / qblur=0.5 / vbv_maxrate=99999 / vbv_bufsize=99999 / nal_hrd=vbr / ip_ratio=1.40 / aq=1:1.00
Language : English

Audio #1
ID : 2
Format : AC-3
Format/Info : Audio Coding 3
Mode extension : CM (complete main)
Codec ID : A_AC3
Duration : 3h 21mn
Bit rate mode : Constant
Bit rate : 448 Kbps
Channel(s) : 6 channels
Channel positions : Front: L C R, Side: L R, LFE
Sampling rate : 48.0 KHz
Bit depth : 16 bits
Compression mode : Lossy
Stream size : 644 MiB (9%)
Title : [THAI AC3 FROM BLU-RAY MASTER]
Language : Thai

Audio #2
ID : 3
Format : DTS
Format/Info : Digital Theater Systems
Codec ID : A_DTS
Duration : 3h 21mn
Bit rate mode : Constant
Bit rate : 755 Kbps
Channel(s) : 6 channels
Channel positions : Front: L C R, Side: L R, LFE
Sampling rate : 48.0 KHz
Bit depth : 24 bits
Compression mode : Lossy
Stream size : 1.06 GiB (16%)
Title : ENG DTS
Language : English

Text #1
ID : 4
Format : VobSub
Codec ID : S_VOBSUB
Codec ID/Info : The same subtitle format used on DVDs
Title : [SUB THAI 480P FROM BLU-RAY]
Language : Thai

Text #2
ID : 5
Format : VobSub
Codec ID : S_VOBSUB
Codec ID/Info : The same subtitle format used on DVDs
Title : [SUB THAI 1080P FROM BLU-RAY]
Language : Thai

Text #3
ID : 6
Format : PGS
Codec ID : S_HDMV/PGS
Codec ID/Info : The same subtitle format used on BDs/HD-DVDs
Title : [SUB THAI PGS FROM BLU-RAY]
Language : Thai

Text #4
ID : 7
Format : PGS
Codec ID : S_HDMV/PGS
Codec ID/Info : The same subtitle format used on BDs/HD-DVDs
Title : [SUB THAI PGS FROM BLU-RAY] UNDER
Language : Thai

Text #5
ID : 8
Format : PGS
Codec ID : S_HDMV/PGS
Codec ID/Info : The same subtitle format used on BDs/HD-DVDs
Title : [SUB ENGLISH PGS FROM BLU-RAY]
Language : English

Text #6
ID : 9
Format : VobSub
Codec ID : S_VOBSUB
Codec ID/Info : The same subtitle format used on DVDs
Title : [SUB ENGLISH 480P FROM BLU-RAY]
Language : English

***** The Hobbit: An Unexpected Journey-เดอะ ฮอบบิท การผจญภัยสุดคาดคิด *****

รายละเอียดเรื่องย่อ/Synopsis
ปฐมบทแห่งไตรภาคของภาพยนตร์ที่ดัดแปลงจากนิยายชิ้นเอ ก The Hobbit ของ เจอาร์อาร์ โทลคีน “เดอะ ฮอบบิท : การผจญภัยสุดคาดคิด” เล่าเรื่องราวของ บิลโบ แบ็กกินส์ ที่ต้องติดตามพ่อมดแกนดัล์ฟและคนแคระทั้ง 13 ซึ่งมีผู้นำคือธอริน โอเคนชีลด์ ในการทวงคืนอาณาจักรคนแคระแห่งเอเรบอร์ที่ถูกมังกรสม อว์กยึดครอง พวกเขาต้องเดินทางฝ่าป่ารกร้าง สู่ดินแดนอันตรายอันเป็นถิ่นฐานของพวกก็อบลิน ออร์ค และหมาป่าวอร์กที่ดุร้าย อีกทั้งจอมมารผู้ลึกลับและชั่วร้ายซึ่งรู้จักกันในนา ม เนโครแมนเซอร์ ตลอดการผจญภัยไม่เพียงแต่บิลโบ แบ็กกินส์ จะค้นพบความกล้าหาญและความเฉลียวฉลาดที่ซุกซ่อนอยู่ใ นตัวแล้ว เขายังได้ครอบครองแหวน “ล้ำค่า” ที่จะลิขิตชะตากรรมของมิดเดิ้ลเอิร์ธอย่างที่บิลโบไม ่มีวันจินตนาการได้

Complete name {Super Mini-HD 1080p HQ} The Hobbit An Unexpected Journey 2012 BluRay 1080p DTS x264 BD-จิ้งจอกเก้าหาง.mkv
Format : Matroska
File size : 5.79 GiB
Duration : 2h 49mn
Overall bit rate : 4 883 Kbps
Movie name : {Super Mini-HD 1080p HQ} The Hobbit An Unexpected Journey 2012 BluRay 1080p DTS x264 BD-จิ้งจอกเก้าหาง
Encoded date : UTC 2010-02-22 21:41:31
Writing application : mkvmerge v5.9.0 ( On The Loose ) built on Dec 9 2012 15:37:01
Writing library : libebml v1.3.0 + libmatroska v1.4.0

Video
ID : 1
Format : AVC
Format/Info : Advanced Video Codec
Format profile : High@L4.1
Format settings, CABAC : Yes
Format settings, ReFrames : 4 frames
Codec ID : V_MPEG4/ISO/AVC
Duration : 2h 49mn
Bit rate mode : Variable
Bit rate : 3 600 Kbps
Maximum bit rate : 100.0 Mbps
Width : 1 920 pixels
Height : 800 pixels
Display aspect ratio : 2.40:1
Frame rate : 23.976 fps
Color space : YUV
Chroma subsampling : 4:2:0
Bit depth : 8 bits
Scan type : Progressive
Bits/(Pixel*Frame) : 0.098
Stream size : 4.25 GiB (73%)
Title : {Super Mini-HD 1080p HQ} The Hobbit An Unexpected Journey 2012 BluRay 1080p DTS x264 BD-จิ้งจอกเก้าหาง
Writing library : x264 core 130 r2273 b3065e6
Encoding settings : cabac=1 / ref=4 / deblock=1:0:0 / analyse=0x3:0x133 / me=umh / subme=11 / psy=1 / psy_rd=1.00:0.15 / mixed_ref=1 / me_range=64 / chroma_me=1 / trellis=2 / 8x8dct=1 / cqm=0 / deadzone=21,11 / fast_pskip=1 / chroma_qp_offset=-3 / threads=16 / lookahead_threads=1 / sliced_threads=0 / nr=0 / decimate=1 / interlaced=0 / bluray_compat=0 / constrained_intra=0 / bframes=4 / b_pyramid=2 / b_adapt=2 / b_bias=0 / direct=3 / weightb=1 / open_gop=0 / weightp=2 / keyint=250 / keyint_min=23 / scenecut=40 / intra_refresh=0 / rc_lookahead=100 / rc=2pass / mbtree=1 / bitrate=3600 / ratetol=1.0 / qcomp=0.60 / qpmin=0 / qpmax=69 / qpstep=4 / cplxblur=20.0 / qblur=0.5 / vbv_maxrate=99999 / vbv_bufsize=99999 / nal_hrd=vbr / ip_ratio=1.40 / aq=1:1.00
Language : English

Audio #1
ID : 2
Format : AC-3
Format/Info : Audio Coding 3
Mode extension : CM (complete main)
Codec ID : A_AC3
Duration : 2h 49mn
Bit rate mode : Constant
Bit rate : 448 Kbps
Channel(s) : 6 channels
Channel positions : Front: L C R, Side: L R, LFE
Sampling rate : 48.0 KHz
Bit depth : 16 bits
Compression mode : Lossy
Stream size : 544 MiB (9%)
Title : [THAI AC3 FROM BLU-RAY MASTER]
Language : Thai

Audio #2
ID : 3
Format : DTS
Format/Info : Digital Theater Systems
Codec ID : A_DTS
Duration : 2h 49mn
Bit rate mode : Constant
Bit rate : 755 Kbps
Channel(s) : 6 channels
Channel positions : Front: L C R, Side: L R, LFE
Sampling rate : 48.0 KHz
Bit depth : 24 bits
Compression mode : Lossy
Stream size : 915 MiB (15%)
Title : ENG DTS
Language : English

Text #1
ID : 4
Format : VobSub
Codec ID : S_VOBSUB
Codec ID/Info : The same subtitle format used on DVDs
Title : [SUB THAI 480P FROM BLU-RAY]
Language : Thai

Text #2
ID : 5
Format : VobSub
Codec ID : S_VOBSUB
Codec ID/Info : The same subtitle format used on DVDs
Title : [SUB THAI 1080P FROM BLU-RAY]
Language : Thai

Text #3
ID : 6
Format : PGS
Codec ID : S_HDMV/PGS
Codec ID/Info : The same subtitle format used on BDs/HD-DVDs
Title : [SUB THAI PGS FROM BLU-RAY]
Language : Thai

Text #4
ID : 7
Format : PGS
Codec ID : S_HDMV/PGS
Codec ID/Info : The same subtitle format used on BDs/HD-DVDs
Title : [SUB THAI PGS FROM BLU-RAY] UNDER
Language : Thai

Text #5
ID : 8
Format : PGS
Codec ID : S_HDMV/PGS
Codec ID/Info : The same subtitle format used on BDs/HD-DVDs
Title : [SUB ENGLISH PGS FROM BLU-RAY]
Language : English

Text #6
ID : 9
Format : VobSub
Codec ID : S_VOBSUB
Codec ID/Info : The same subtitle format used on DVDs
Title : [SUB ENGLISH 480P FROM BLU-RAY]
Language : English

************************************************** *****************

Complete name {Super Mini-HD 1080p HQ} The Hobbit The Desolation Of Smaug 2013 BluRay 1080p DTS x264-จิ้งจอกเก้าหาง.mkv
Format : Matroska
File size : 5.71 GiB
Duration : 2h 41mn
Overall bit rate : 5 068 Kbps
Movie name : {Super Mini-HD 1080p HQ} The Hobbit The Desolation Of Smaug 2013 BluRay 1080p DTS x264-จิ้งจอกเก้าหาง
Encoded date : UTC 2010-02-22 21:41:31
Writing application : mkvmerge v5.9.0 ( On The Loose ) built on Dec 9 2012 15:37:01
Writing library : libebml v1.3.0 + libmatroska v1.4.0

Video
ID : 1
Format : AVC
Format/Info : Advanced Video Codec
Format profile : High@L4.1
Format settings, CABAC : Yes
Format settings, ReFrames : 4 frames
Codec ID : V_MPEG4/ISO/AVC
Duration : 2h 41mn
Bit rate mode : Variable
Bit rate : 3 800 Kbps
Maximum bit rate : 100.0 Mbps
Width : 1 920 pixels
Height : 1 080 pixels
Display aspect ratio : 16:9
Frame rate : 23.976 fps
Color space : YUV
Chroma subsampling : 4:2:0
Bit depth : 8 bits
Scan type : Progressive
Bits/(Pixel*Frame) : 0.076
Stream size : 4.24 GiB (74%)
Title : {Super Mini-HD 1080p HQ} The Hobbit The Desolation Of Smaug 2013 BluRay 1080p DTS x264-จิ้งจอกเก้าหาง
Writing library : x264 core 130 r2273 b3065e6
Encoding settings : cabac=1 / ref=4 / deblock=1:0:0 / analyse=0x3:0x133 / me=umh / subme=11 / psy=1 / psy_rd=1.00:0.15 / mixed_ref=1 / me_range=64 / chroma_me=1 / trellis=2 / 8x8dct=1 / cqm=0 / deadzone=21,11 / fast_pskip=1 / chroma_qp_offset=-3 / threads=16 / lookahead_threads=1 / sliced_threads=0 / nr=0 / decimate=1 / interlaced=0 / bluray_compat=0 / constrained_intra=0 / bframes=4 / b_pyramid=2 / b_adapt=2 / b_bias=0 / direct=3 / weightb=1 / open_gop=0 / weightp=2 / keyint=250 / keyint_min=23 / scenecut=40 / intra_refresh=0 / rc_lookahead=100 / rc=2pass / mbtree=1 / bitrate=3800 / ratetol=1.0 / qcomp=0.60 / qpmin=0 / qpmax=69 / qpstep=4 / cplxblur=20.0 / qblur=0.5 / vbv_maxrate=99999 / vbv_bufsize=99999 / nal_hrd=vbr / ip_ratio=1.40 / aq=1:1.00
Language : English

Audio #1
ID : 2
Format : AC-3
Format/Info : Audio Coding 3
Mode extension : CM (complete main)
Codec ID : A_AC3
Duration : 2h 41mn
Bit rate mode : Constant
Bit rate : 448 Kbps
Channel(s) : 6 channels
Channel positions : Front: L C R, Side: L R, LFE
Sampling rate : 48.0 KHz
Bit depth : 16 bits
Compression mode : Lossy
Stream size : 517 MiB (9%)
Title : [THAI AC3 FROM BLU-RAY MASTER]
Language : Thai

Audio #2
ID : 3
Format : DTS
Format/Info : Digital Theater Systems
Codec ID : A_DTS
Duration : 2h 41mn
Bit rate mode : Constant
Bit rate : 755 Kbps
Channel(s) : 6 channels
Channel positions : Front: L C R, Side: L R, LFE
Sampling rate : 48.0 KHz
Bit depth : 24 bits
Compression mode : Lossy
Stream size : 870 MiB (15%)
Title : ENG DTS
Language : English

Text #1
ID : 4
Format : VobSub
Codec ID : S_VOBSUB
Codec ID/Info : The same subtitle format used on DVDs
Title : [SUB THAI 480P FROM BLU-RAY]
Language : Thai

Text #2
ID : 5
Format : VobSub
Codec ID : S_VOBSUB
Codec ID/Info : The same subtitle format used on DVDs
Title : [SUB THAI 1080P FROM BLU-RAY]
Language : Thai

Text #3
ID : 6
Format : PGS
Codec ID : S_HDMV/PGS
Codec ID/Info : The same subtitle format used on BDs/HD-DVDs
Title : [SUB THAI PGS FROM BLU-RAY]
Language : Thai

Text #4
ID : 7
Format : PGS
Codec ID : S_HDMV/PGS
Codec ID/Info : The same subtitle format used on BDs/HD-DVDs
Title : [SUB THAI PGS FROM BLU-RAY] UNDER
Language : Thai

Text #5
ID : 8
Format : PGS
Codec ID : S_HDMV/PGS
Codec ID/Info : The same subtitle format used on BDs/HD-DVDs
Title : [SUB ENGLISH PGS FROM BLU-RAY]
Language : English

Text #6
ID : 9
Format : VobSub
Codec ID : S_VOBSUB
Codec ID/Info : The same subtitle format used on DVDs
Title : [SUB ENGLISH 480P FROM BLU-RAY]
Language : English

************************************************** *****************

Complete name {Super Mini-HD 1080p HQ} The Hobbit 3 The Battle of the Five Armies 2014 BluRay 1080p DTS x264-จิ้งจอกเก้าหาง.mkv
Format : Matroska
File size : 5.01 GiB
Duration : 2h 24mn
Overall bit rate : 4 962 Kbps
Movie name : {Super Mini-HD 1080p HQ} The Hobbit 3 The Battle of the Five Armies 2014 BluRay 1080p DTS x264-จิ้งจอกเก้าหาง
Encoded date : UTC 2015-03-24 05:40:11
Writing application : mkvmerge v7.3.0 ( Nouages ) 32bit built on Oct 22 2014 18:44:01
Writing library : libebml v1.3.0 + libmatroska v1.4.1

Video
ID : 1
Format : AVC
Format/Info : Advanced Video Codec
Format profile : High@L4.1
Format settings, CABAC : Yes
Format settings, ReFrames : 4 frames
Codec ID : V_MPEG4/ISO/AVC
Duration : 2h 24mn
Bit rate mode : Variable
Bit rate : 3 700 Kbps
Maximum bit rate : 100.0 Mbps
Width : 1 920 pixels
Height : 800 pixels
Display aspect ratio : 2.40:1
Frame rate : 23.976 fps
Color space : YUV
Chroma subsampling : 4:2:0
Bit depth : 8 bits
Scan type : Progressive
Bits/(Pixel*Frame) : 0.100
Stream size : 3.69 GiB (74%)
Title : {Super Mini-HD 1080p HQ} The Hobbit 3 The Battle of the Five Armies 2014 BluRay 1080p DTS x264-จิ้งจอกเก้าหาง
Writing library : x264 core 130 r2273 b3065e6
Encoding settings : cabac=1 / ref=4 / deblock=1:0:0 / analyse=0x3:0x133 / me=umh / subme=11 / psy=1 / psy_rd=1.00:0.15 / mixed_ref=1 / me_range=64 / chroma_me=1 / trellis=2 / 8x8dct=1 / cqm=0 / deadzone=21,11 / fast_pskip=1 / chroma_qp_offset=-3 / threads=16 / lookahead_threads=1 / sliced_threads=0 / nr=0 / decimate=1 / interlaced=0 / bluray_compat=0 / constrained_intra=0 / bframes=4 / b_pyramid=2 / b_adapt=2 / b_bias=0 / direct=3 / weightb=1 / open_gop=0 / weightp=2 / keyint=250 / keyint_min=23 / scenecut=40 / intra_refresh=0 / rc_lookahead=100 / rc=2pass / mbtree=1 / bitrate=3700 / ratetol=1.0 / qcomp=0.60 / qpmin=0 / qpmax=69 / qpstep=4 / cplxblur=20.0 / qblur=0.5 / vbv_maxrate=99999 / vbv_bufsize=99999 / nal_hrd=vbr / ip_ratio=1.40 / aq=1:1.00
Language : English

Audio #1
ID : 2
Format : AC-3
Format/Info : Audio Coding 3
Mode extension : CM (complete main)
Codec ID : A_AC3
Duration : 2h 24mn
Bit rate mode : Constant
Bit rate : 448 Kbps
Channel(s) : 6 channels
Channel positions : Front: L C R, Side: L R, LFE
Sampling rate : 48.0 KHz
Bit depth : 16 bits
Compression mode : Lossy
Stream size : 463 MiB (9%)
Title : [THAI AC3 FROM BLU-RAY MASTER]
Language : Thai

Audio #2
ID : 3
Format : DTS
Format/Info : Digital Theater Systems
Codec ID : A_DTS
Duration : 2h 24mn
Bit rate mode : Constant
Bit rate : 755 Kbps
Channel(s) : 6 channels
Channel positions : Front: L C R, Side: L R, LFE
Sampling rate : 48.0 KHz
Bit depth : 24 bits
Compression mode : Lossy
Stream size : 780 MiB (15%)
Title : ENG DTS
Language : English

Text #1
ID : 4
Format : VobSub
Codec ID : S_VOBSUB
Codec ID/Info : The same subtitle format used on DVDs
Title : [SUB THAI 480P FROM BLU-RAY]
Language : Thai

Text #2
ID : 5
Format : VobSub
Codec ID : S_VOBSUB
Codec ID/Info : The same subtitle format used on DVDs
Title : [SUB THAI 1080P FROM BLU-RAY]
Language : Thai

Text #3
ID : 6
Format : PGS
Codec ID : S_HDMV/PGS
Codec ID/Info : The same subtitle format used on BDs/HD-DVDs
Title : [SUB THAI PGS FROM BLU-RAY]
Language : Thai

Text #4
ID : 7
Format : PGS
Codec ID : S_HDMV/PGS
Codec ID/Info : The same subtitle format used on BDs/HD-DVDs
Title : [SUB THAI PGS FROM BLU-RAY] UNDER
Language : Thai

Text #5
ID : 8
Format : PGS
Codec ID : S_HDMV/PGS
Codec ID/Info : The same subtitle format used on BDs/HD-DVDs
Title : ENG PGS
Language : English

Text #6
ID : 9
Format : VobSub
Codec ID : S_VOBSUB
Codec ID/Info : The same subtitle format used on DVDs
Title : ENG 480P
Language : English

{Super Mini-HD 1080p HQ} The Lord of the Rings 2001 BluRay 1080p DTS x264-จิ้งจอกเก้าหาง.mkv – 6377758207
{Super Mini-HD 1080p HQ} The Lord of the Rings 2002 BluRay 1080p DTS x264-จิ้งจอกเก้าหาง.mkv – 6407601884
{Super Mini-HD 1080p HQ} The Lord of the Rings 2003 BluRay 1080p DTS x264-จิ้งจอกเก้าหาง.mkv – 7161981375
{Super Mini-HD 1080p HQ} The Hobbit The Desolation Of Smaug 2013 BluRay 1080p DTS x264-จิ้งจอกเก้าหาง.mkv – 6131516613
{Super Mini-HD 1080p HQ} The Hobbit An Unexpected Journey 2012 BluRay 1080p DTS x264 BD-จิ้งจอกเก้าหาง.mkv – 6212490526
{Super Mini-HD 1080p HQ} The Hobbit 3 The Battle of the Five Armies 2014 BluRay 1080p DTS x264-จิ้งจอกเก้าหาง.mkv – 5377228198

Facebook Comments

About the author

one4up .com

Add Comment

Click here to post a comment

Featured

Posts

HD Blu-Ray 1080p

[ฝรั่ง]-ใหม่ร้อนๆ! +[* เสียงไทยมาสเตอร์ *] Sleepless (2017) : คืนเดือด คนระห่ำ [*CtHts@SiamBIT*] • [พากย์ไทย มาสเตอร์ + เสียงอังกฤษ DTS] • [บรรยาย อังกฤษ] • [เสียงไทย MASTER] • [ เล็กพริกขี้หนู 1080p HQ ] Or *• ไฟล์เล็ก 1080p คุณภาพสูง

Advertisement