HD Blu-Ray 720p หนังซูม

[ฝรั่ง]-[V1] • Dunkirk (2017) : ดันเคิร์ก • [* Dunkirk.2017.HDCAM.x264.AC3.ThaIRonG CpT@CtHts.mkv *] [Sound ThaiRong 2.0 + English 2.0] • [หนังซูม] • [พากย์ไทยโรง]

การอพยพครั้งใหญ่ของทหารชาวอังกฤษและทหารเหล่าพันธมิ ตรนับแสนคน…
••• HDCAM.x264.AC3.ThaIRonG_CpT@CtHts •••
พากย์ไทยโรง 2.0 + เสียงอังกฤษ 2.0

Dunkirk ภาพยนตร์เรื่อง “Dunkirk” เปิดตัวด้วยฉากที่ชาวอังกฤษและเหล่าพันธมิตรนับแสนคน ถูกกองกำลังศัตรูรายล้อมอยู่รอบตัว พวกเขาติดกับอยู่บนชายหาด เบื้องหลังคือท้องทะเลและต้องเผชิญหน้ากับสถานการณ์ท ี่เป็นไปไม่ได้เมื่อศัตรูเข้ามาประชิดตัว

ทีมนักแสดงชื่อดังในภาพยนตร์เรื่อง “Dunkirk” ได้แก่ ทอม ฮาร์ดี้ (“The Revenant,” “Mad Max: Fury Road,” “Inception”), มาร์ค ไรแลนซ์ (“Bridge of Spies,” “Wolf Hall”), เคนเนธ บรานอห์ (“My Week with Marilyn,” “Hamlet,” “Henry V”) และซิลเลียน เมอร์ฟี่ (“Inception,” ภาพยนตร์ไตรภาค “The Dark Knight”) รวมถึงนักแสดงหน้าใหม่ เฟียน ไวท์เฮด ทีมนักแสดงที่เหลือ ได้แก่ อนูริน บาร์นาร์ด, แฮร์รี่ สไตล์ส, เจมส์ ดี’อาร์ซี่, แจ็ค ลอว์เดน, แบร์รี่ คีโอแกน และ ทอม กลินน์-คาร์นีย์

Format : Matroska
File size : 2.00 GiB
Duration : 1 h 39 min
Overall bit rate : 2 883 kb/s
Movie name : Modified By Captain CtHts@SiamBIT

Video
ID : 1
Format : AVC
Format/Info : Advanced Video Codec
Format profile : High@L4.2
Format settings, CABAC : Yes
Format settings, RefFrames : 5 frames
Codec ID : V_MPEG4/ISO/AVC
Duration : 1 h 39 min
Bit rate mode : Variable
Bit rate : 2 497 kb/s
Maximum bit rate : 62.5 Mb/s
Width : 720 pixels
Height : 320 pixels
Display aspect ratio : 2.25:1
Frame rate mode : Constant
Frame rate : 29.970 (30000/1001) FPS
Color space : YUV
Chroma subsampling : 4:2:0
Bit depth : 8 bits
Scan type : Progressive
Bits/(Pixel*Frame) : 0.362
Stream size : 1.73 GiB (87%)
Title : Dunkirk.2017.HDCAM.x264.AC3.ThaIRonG_CpT@CtHts
Language : English
Default : Yes
Forced : No
Color range : Limited
Color primaries : BT.709
Transfer characteristics : BT.709
Matrix coefficients : BT.709

Audio #1
ID : 2
Format : AC-3
Format/Info : Audio Coding 3
Format settings, Endianness : Big
Codec ID : A_AC3
Duration : 1 h 39 min
Bit rate mode : Constant
Bit rate : 192 kb/s
Channel(s) : 2 channels
Channel positions : Front: L R
Sampling rate : 48.0 kHz
Frame rate : 31.250 FPS (1536 SPF)
Bit depth : 16 bits
Compression mode : Lossy
Stream size : 136 MiB (7%)
Title : ThaIRong 2.0 (AC-3) by Captain
Language : Thai
Service kind : Complete Main
Default : Yes
Forced : No

Audio #2
ID : 3
Format : MPEG Audio
Format version : Version 1
Format profile : Layer 3
Mode : Joint stereo
Codec ID : A_MPEG/L3
Codec ID/Hint : MP3
Duration : 1 h 39 min
Bit rate mode : Constant
Bit rate : 192 kb/s
Channel(s) : 2 channels
Sampling rate : 44.1 kHz
Frame rate : 38.281 FPS (1152 SPF)
Compression mode : Lossy
Delay relative to video : 20 ms
Stream size : 136 MiB (7%)
Title : English 2.0 (Mp3)
Language : English
Default : No
Forced : No

Dunkirk.2017.HDCAM.x264.AC3.ThaIRonG_CpT@CtHts.mkv – 2149123605

Facebook Comments

About the author

one4up .com

Add Comment

Click here to post a comment

Featured

Posts

HD Blu-Ray 1080p

[ฝรั่ง]-ใหม่ร้อนๆ! +[* เสียงไทยมาสเตอร์ *] Sleepless (2017) : คืนเดือด คนระห่ำ [*CtHts@SiamBIT*] • [พากย์ไทย มาสเตอร์ + เสียงอังกฤษ DTS] • [บรรยาย อังกฤษ] • [เสียงไทย MASTER] • [ เล็กพริกขี้หนู 1080p HQ ] Or *• ไฟล์เล็ก 1080p คุณภาพสูง

Advertisement