HD Blu-Ray 720p

[ฝรั่ง]-Security (2017)[อันโตนิโอ บันเดอราส] [เสียงอังกฤษ5.1+ ซับไทยPGS]AC-3.720p. [Modified]-[Soundtrack บรรยายไทย]

ชื่ออังกฤษ : Security

ชื่อภาษาไทย :-

ประเภท : ภาพยนตร์

แนว : Action

ผู้กำกับ : Alain Desrochers

บท : Tony Mosher, John Sullivan (screenplay)

แสดงโดย : Ben Kingsley, Antonio Banderas, Liam McIntyre

ค่าย : Nu Boyana Film Studios,/Nu Image / Millennium Films

ฉาย : 2017

ความยาว : 1 ชั่วโมง 27 นาที

การกลับมาของพระเอกนักบู๊ชื่อดัง “อันโตนิโอ บันเดอราส” ในบทบาทแอคชั่นทริลเลอร์สุดมันส์ ฉีกทุกกฎของการเป็นเจ้าหน้าที่ยามรักษาความปลอดภัย ในห้างสรรพสินค้ายามค่ำคืนที่เงียบสงัด เข้าต่อกรกับมาเฟียผู้อยู่นอกกฎหมาย!

เรื่องราวของ Security จะเล่าเรื่องราวของ เจ้าหน้าที่นาวิกโยธินที่ออกจากราชการ (อันโตนิโอ บันเดอราส) หมายจะใช้ชีวิตให้หลุดจากวังวนของสงคราม และการดวลปืนในสนามรบ และเขาเลือกที่จะเป็นเจ้าหน้าที่รักษาความปลอดภัยในห ้างสรรพสินค้าเล็กๆย่านชานเมืองแห่งหนึ่ง

ต่ทว่าโชคชะตาเล่นตลก ในวันแรกที่เขาเข้างานกะกลางคืนนั้น อยู่ๆก็มีเด็กหญิงผู้หญิงมาขอความช่วยเหลือจากเขา และทำให้เขารู้ว่า เธอยู่ในโครงการคุ้มครองพยาน ในคดีที่เกี่ยวพันกับแก๊งมาเฟีย และผู้มีอิทธิพล ซึ่งในตอนนี้เธอกำลังถูกตามล่าหมายเอาชีวิต

พวกมาเฟีย ได้ส่งกองกำลังทหารรับจ้าง หมายจะปิดปากพยานเอก ทำให้อดีตนาวิกโยธินรายนี้ ต้องกลับมาจับปืน และปกป้องผู้บริสุทธิ์อีกครั้ง
นอกจากอันโตนิโอ บันเดอราส ที่ไปอัพหุ่นให้เฟิร์ม และดูหนุ่มกว่าตอนที่เล่น Automata และ Expendible3 แล้ว หนังยังได้ดาราเจ้าบทบาทอย่าง เบน คิงส์ลี่ย์ มารับบทเป็นวายร้ายของเรื่อง โดยทีมสร้างภาพยนตร์เรื่องนี้ตั้งใจจะอัดฉากแอคชั่นม ันส์ทะลุจอด้วยทุนสร้าง $15,000,000 และสร้างคาแรคเตอร์ของอันโตนิโอ ให้เด่น และเป็นที่จดจำของคอหนังอีกด้วย

ตัวหนังมีกำหนดฉายภายในปี 2017

Format : Matroska
Format version : Version 4 / Version 2
File size : 2.88 GiB
Duration : 1 h 31 min
Overall bit rate : 4 499 kb/s

Video
ID : 1
Format : AVC
Format/Info : Advanced Video Codec
Format profile : Main@L3.1
Format settings, CABAC : No
Format settings, ReFrames : 2 frames
Codec ID : V_MPEG4/ISO/AVC
Duration : 1 h 31 min
Bit rate : 4 078 kb/s
Width : 1 280 pixels
Height : 536 pixels
Display aspect ratio : 2.40:1
Frame rate mode : Constant
Frame rate : 23.976 FPS
Color space : YUV
Chroma subsampling : 4:2:0
Bit depth : 8 bits
Scan type : Progressive
Bits/(Pixel*Frame) : 0.248
Stream size : 2.61 GiB (91%)
Title : Security.2017
Language : English
Default : Yes
Forced : No
Color range : Limited
Color primaries : BT.709
Transfer characteristics : BT.709
Matrix coefficients : BT.709

Audio
ID : 2
Format : AC-3
Format/Info : Audio Coding 3
Format settings, Endianness : Big
Codec ID : A_AC3
Duration : 1 h 31 min
Bit rate mode : Constant
Bit rate : 384 kb/s
Channel(s) : 6 channels
Channel positions : Front: L C R, Side: L R, LFE
Sampling rate : 48.0 kHz
Frame rate : 31.250 FPS (1536 spf)
Bit depth : 16 bits
Compression mode : Lossy
Stream size : 252 MiB (9%)
Title : English AC-3
Language : English
Service kind : Complete Main
Default : Yes
Forced : No

Text #1
ID : 3
Format : PGS
Muxing mode : zlib
Codec ID : S_HDMV/PGS
Codec ID/Info : Picture based subtitle format used on BDs/HD-DVDs
Duration : 1 h 27 min
Bit rate : 18.5 kb/s
Count of elements : 1872
Stream size : 11.6 MiB (0%)
Title : Thai PGS _Under
Language : Thai
Default : No
Forced : No

Text #2
ID : 4
Format : PGS
Muxing mode : zlib
Codec ID : S_HDMV/PGS
Codec ID/Info : Picture based subtitle format used on BDs/HD-DVDs
Duration : 1 h 27 min
Bit rate : 18.5 kb/s
Count of elements : 1872
Stream size : 11.6 MiB (0%)
Title : Thai PGS Yellow
Language : Thai
Default : Yes
Forced : Yes












Security.2017.720p_TH.mkv – 3094500411

Facebook Comments

About the author

one4up .com

Add Comment

Click here to post a comment

Featured

Posts

HD Blu-Ray 1080p

[ฝรั่ง]-ใหม่ร้อนๆ! +[* เสียงไทยมาสเตอร์ *] Sleepless (2017) : คืนเดือด คนระห่ำ [*CtHts@SiamBIT*] • [พากย์ไทย มาสเตอร์ + เสียงอังกฤษ DTS] • [บรรยาย อังกฤษ] • [เสียงไทย MASTER] • [ เล็กพริกขี้หนู 1080p HQ ] Or *• ไฟล์เล็ก 1080p คุณภาพสูง

Advertisement