HD Blu-Ray 720p

[ฝรั่ง]-[ใหม่!!ภาพชัดมาแล้ว] • [โมเสียงไทยโรง 5.1 ชัดที่สุดตอนนี้!!] • King Arthur: Legend of the Sword (2017) คิง อาร์เธอร์ ตำนานแห่งดาบราชันย์ • [720p] • [* WEB-DL.H264.AC3] [Sound ThaiRong 5.1 + English DD5.1] • [Modified] • [พากย์ไทยโรง]

ตำนานแห่งดาบราชันย์ของอังกฤษ
••• 720p WEB-DL.H264.AC3.ThaIRong.5.1 – CpT •••
พากย์ไทยโรง 5.1 + เสียงอังกฤษ 5.1

 

King Arthur: Legend of the Sword ภาพยนตร์แอ็คชั่นผจญภัยแฟนตาซีสุดอลังการแหวกแนวตำนา นสุดคลาสสิคของดาบเอกซ์แคลิเบอร์ มีการติดตามชีวิตของอาร์เธอร์ตั้งแต่ชีวิตธรรมดาจนถึ งการได้ขึ้นครองบัลลังก์ พ่อของอาร์เธอร์ถูกฆ่าตายตั้งแต่เด็ก วอร์ทิเกิร์น (จู๊ด ลอว์) ลุงของอาร์เธอร์ได้ฉวยโอกาสครองมงกุฎ ชิงสิทธิโดยชอบธรรมของเขาและเขาเองก็ไม่รู้ชะตาชีวิต ที่แท้จริงของตนเอง อาร์เธอร์เติบโตด้วยความยากลำบากในตรอกเล็กๆ ของเมือง แต่เมื่อเขาดึงดาบขึ้นมาจากหินได้ ชีวิตเขาเกิดพลิกผันและทำให้พบกับชะตาชีวิตที่แท้จริ งของตัวเอง.. แม้ว่าเขาจะยินดีหรือไม่ก็ตาม

Format : Matroska
File size : 4.30 GiB
Duration : 2 h 6 min
Overall bit rate : 4 878 kb/s

Movie name : Modified By Captain CtHts@SiamBIT

Video
ID : 1
Format : AVC
Format/Info : Advanced Video Codec
Format profile : Main@L3.1
Format settings, CABAC : No
Format settings, RefFrames : 2 frames
Codec ID : V_MPEG4/ISO/AVC
Duration : 2 h 6 min
Bit rate : 4 044 kb/s
Width : 1 280 pixels
Height : 530 pixels
Display aspect ratio : 2.40:1
Frame rate mode : Constant
Frame rate : 23.976 (23976/1000) FPS
Color space : YUV
Chroma subsampling : 4:2:0
Bit depth : 8 bits
Scan type : Progressive
Bits/(Pixel*Frame) : 0.249
Stream size : 3.56 GiB (83%)
Title : King.Arthur.Legend.of.the.Sword.2017.720p.WEB-DL.H264.AC3.ThaIRong.5.1 – CpT-CtHts@SiamBIT
Language : English
Default : Yes
Forced : No
Color range : Limited
Color primaries : BT.709
Transfer characteristics : BT.709
Matrix coefficients : BT.709

Audio #1
ID : 2
Format : AC-3
Format/Info : Audio Coding 3
Format settings, Endianness : Big
Codec ID : A_AC3
Duration : 2 h 6 min
Bit rate mode : Constant
Bit rate : 448 kb/s
Channel(s) : 6 channels
Channel positions : Front: L C R, Side: L R, LFE
Sampling rate : 48.0 kHz
Frame rate : 31.250 FPS (1536 SPF)
Bit depth : 16 bits
Compression mode : Lossy
Stream size : 404 MiB (9%)
Title : ThaIRonG 5.1 By Captain
Language : Thai
Service kind : Complete Main
Default : Yes
Forced : No

Audio #2
ID : 3
Format : AC-3
Format/Info : Audio Coding 3
Format settings, Endianness : Big
Codec ID : A_AC3
Duration : 2 h 6 min
Bit rate mode : Constant
Bit rate : 384 kb/s
Channel(s) : 6 channels
Channel positions : Front: L C R, Side: L R, LFE
Sampling rate : 48.0 kHz
Frame rate : 31.250 FPS (1536 SPF)
Bit depth : 16 bits
Compression mode : Lossy
Stream size : 347 MiB (8%)
Title : English DD5.1
Language : English
Service kind : Complete Main
Default : No
Forced : No

Menu
00:00:00.000 : en:1
00:12:43.000 : en:2
00:21:05.000 : en:3
00:32:32.000 : en:4
00:43:09.000 : en:5
00:56:48.000 : en:6
01:06:48.000 : en:7
01:14:13.000 : en:8
01:23:44.000 : en:9
01:36:37.000 : en:10
01:46:57.000 : en:11
01:58:59.000 : en:12
 wrote:





King.Arthur.Legend.of.the.Sword.2017.720p.WEB-DL.H264.AC3.ThaIRong.5.1.mkv – 4617314446

Facebook Comments

About the author

one4up .com

Add Comment

Click here to post a comment

Featured

Posts

HD Blu-Ray 1080p

[ฝรั่ง]-ใหม่ร้อนๆ! +[* เสียงไทยมาสเตอร์ *] Sleepless (2017) : คืนเดือด คนระห่ำ [*CtHts@SiamBIT*] • [พากย์ไทย มาสเตอร์ + เสียงอังกฤษ DTS] • [บรรยาย อังกฤษ] • [เสียงไทย MASTER] • [ เล็กพริกขี้หนู 1080p HQ ] Or *• ไฟล์เล็ก 1080p คุณภาพสูง

Advertisement