The Fast and The Furious ( 2001 )

เนื้อเรื่องย่อ โดมินิค โทเร็ทโต (วิน ดีเซล) ขับรถบนถนนแอลเอราวกับว่าเขาเป็นจ้าวถนน พร้อมด้วยพลพรรคทีมแข่งรถของเขา เขาใช้เวลาแต่ละวันปรับแต่งเครื่องยนต์รถแข่งให้มีสม รรถนะสูง เขาให้ความสำคัญกับหัวฉีดน้ำมันที่ควบคุมด้วยคอมพิวเ ตอร์ มากกว่ารูปลักษณ์และรุ่นของรถ ซึ่งทำให้รถพุ่งแรงราวกับบินได้
General
Unique ID : 227756353587601514701629144943018337896 (0xAB5847342CDC2EE681DE777993EB6668)
Complete name : E:หนังไตรภาค3..Fast & Furious 7-Movie Collection (2001-2015) เร็ว…แรงทะลุนรก 1-71.The Fast and The Furious (2001) เร็ว…แรงทะลุนรก[Super Mini-HD 1080p HQ] The Fast and the Furious 2001 BluRay 1080p DTS x264 V2-จิ้งจอกเก้าหาง.mkv
Format : Matroska
Format version : Version 4 / Version 2
File size : 4.30 GiB
Duration : 1h 46mn
Overall bit rate mode : Variable
Overall bit rate : 5 763 Kbps
Movie name : [Super Mini-HD 1080p HQ] The Fast and the Furious 2001 BluRay 1080p DTS x264 V2-จิ้งจอกเก้าหาง
Encoded date : UTC 2015-08-05 04:53:14
Writing application : mkvmerge v6.2.0 ( Promised Land ) built on Apr 28 2013 12:22:01
Writing library : libebml v1.3.0 + libmatroska v1.4.0

Video
ID : 1
Format : AVC
Format/Info : Advanced Video Codec
Format profile : High@L4.1
Format settings, CABAC : Yes
Format settings, ReFrames : 5 frames
Codec ID : V_MPEG4/ISO/AVC
Duration : 1h 46mn
Bit rate mode : Variable
Bit rate : 4 150 Kbps
Maximum bit rate : 100.0 Mbps
Width : 1 920 pixels
Height : 800 pixels
Display aspect ratio : 2.40:1
Frame rate mode : Constant
Frame rate : 23.976 fps
Color space : YUV
Chroma subsampling : 4:2:0
Bit depth : 8 bits
Scan type : Progressive
Bits/(Pixel*Frame) : 0.113
Stream size : 3.08 GiB (72%)
Title : [Super Mini-HD 1080p HQ] The Fast and the Furious 2001 BluRay 1080p DTS x264 V2-จิ้งจอกเก้าหาง
Writing library : x264 core 130 r2273 b3065e6
Encoding settings : cabac=1 / ref=5 / deblock=1:0:0 / analyse=0x3:0x133 / me=umh / subme=11 / psy=1 / psy_rd=1.00:0.15 / mixed_ref=1 / me_range=64 / chroma_me=1 / trellis=2 / 8x8dct=1 / cqm=0 / deadzone=21,11 / fast_pskip=1 / chroma_qp_offset=-3 / threads=16 / lookahead_threads=1 / sliced_threads=0 / nr=0 / decimate=1 / interlaced=0 / bluray_compat=0 / constrained_intra=0 / bframes=5 / b_pyramid=2 / b_adapt=2 / b_bias=0 / direct=3 / weightb=1 / open_gop=0 / weightp=2 / keyint=250 / keyint_min=23 / scenecut=40 / intra_refresh=0 / rc_lookahead=100 / rc=2pass / mbtree=1 / bitrate=4150 / ratetol=1.0 / qcomp=0.60 / qpmin=0 / qpmax=69 / qpstep=4 / cplxblur=20.0 / qblur=0.5 / vbv_maxrate=99999 / vbv_bufsize=99999 / nal_hrd=vbr / ip_ratio=1.40 / aq=1:1.00
Language : English
Default : Yes
Forced : No

Audio #1
ID : 2
Format : DTS
Format/Info : Digital Theater Systems
Mode : 16
Format settings, Endianness : Big
Codec ID : A_DTS
Duration : 1h 46mn
Bit rate mode : Constant
Bit rate : 768 Kbps
Channel(s) : 6 channels
Channel positions : Front: L C R, Side: L R, LFE
Sampling rate : 48.0 KHz
Bit depth : 24 bits
Compression mode : Lossy
Stream size : 587 MiB (13%)
Title : [THAI DTS FROM BLU-RAY MASTER]
Language : Thai
Default : Yes
Forced : No

Audio #2
ID : 3
Format : DTS
Format/Info : Digital Theater Systems
Mode : 16
Format settings, Endianness : Big
Codec ID : A_DTS
Duration : 1h 46mn
Bit rate mode : Constant
Bit rate : 755 Kbps
Channel(s) : 6 channels
Channel positions : Front: L C R, Side: L R, LFE
Sampling rate : 48.0 KHz
Bit depth : 24 bits
Compression mode : Lossy
Stream size : 577 MiB (13%)
Title : eng dts
Language : English
Default : No
Forced : No

Text #1
ID : 4
Format : VobSub
Codec ID : S_VOBSUB
Codec ID/Info : The same subtitle format used on DVDs
Title : [SUB THAI 480P FROM BLU-RAY]
Language : Thai
Default : No
Forced : No

Text #2
ID : 5
Format : VobSub
Codec ID : S_VOBSUB
Codec ID/Info : The same subtitle format used on DVDs
Title : [SUB THAI 1080P FROM BLU-RAY]
Language : Thai
Default : No
Forced : No

Text #3
ID : 6
Format : PGS
Codec ID : S_HDMV/PGS
Codec ID/Info : The same subtitle format used on BDs/HD-DVDs
Title : [SUB THAI PGS FROM BLU-RAY]
Language : Thai
Default : No
Forced : No

Text #4
ID : 7
Format : PGS
Codec ID : S_HDMV/PGS
Codec ID/Info : The same subtitle format used on BDs/HD-DVDs
Title : [SUB THAI PGS FROM BLU-RAY] UNDER
Language : Thai
Default : No
Forced : No

Text #5
ID : 8
Format : PGS
Codec ID : S_HDMV/PGS
Codec ID/Info : The same subtitle format used on BDs/HD-DVDs
Title : [SUB ENG PGS FROM BLU-RAY]
Language : English
Default : No
Forced : No

Text #6
ID : 9
Format : VobSub
Codec ID : S_VOBSUB
Codec ID/Info : The same subtitle format used on DVDs
Title : [SUB ENG 480P FROM BLU-RAY]
Language : English
Default : No
Forced : No

2 Fast 2 Furious 2003

เนื้อเรื่องย่อ มันง่ายที่จะไปถึง และมันเข้าใกล้กับวงล้อ ที่วิ่งด้วยความเร็วสูง…

ไบรอัน โอคอนเนอร์ (พอล วอลเกอร์) ซึ่งตอนนี้กลายเป็นตำรวจที่ถูกถอดยศ กลับกลายเป็นเหยื่อของมัน… และตอนนี้ เขากำลังจะต้องชดใช้ ขณะที่บรรดาอดีตเจ้านาย และพวกเอฟบีไอต่างเป็นกังวล ตำรวจลับหนุ่มเลือดร้อนผู้นี้ กำลังทำการสืบสวนคดีที่ใหญ่ที่สุดเท่าที่เคยมีมา ความสัตย์ซื่อของเขาต้องผ่านการทดสอบ ในขณะที่เขาแฝงตัวเข้าไปในโลกความเร็ว ที่ทะยานไปท่ามกลางความมืดแห่งราตรี ของวงการซิ่งรถบนถนนหลวง ของนครลอสแอนเจลิส โอคอนเนอร์เปิดเผยตัวตนจริงของเขา และปล่อยให้หัวหน้าของแก๊งค์ขโมยรถหนีไป ยิ่งไปกว่านั้น เขายังเดินหน้าและตอบรับความท้าทาย
General
Unique ID : 248640181483229945485050851867859456194 (0xBB0E5B6A3A121D90A49A6DE20A0190C2)
Complete name : E:หนังไตรภาค3..Fast & Furious 7-Movie Collection (2001-2015) เร็ว…แรงทะลุนรก 1-72.2 Fast 2 Furious (2003) เร็ว…คูณ 2 ดับเบิ้ลแรงท้านรก[Super Mini-HD 1080p HQ] 2 Fast 2 Furious 2003 BluRay 1080p DTS x264 V2-จิ้งจอกเก้าหาง.mkv
Format : Matroska
Format version : Version 4 / Version 2
File size : 4.31 GiB
Duration : 1h 47mn
Overall bit rate mode : Variable
Overall bit rate : 5 739 Kbps
Movie name : [Super Mini-HD 1080p HQ] 2 Fast 2 Furious 2003 BluRay 1080p DTS x264 V2-จิ้งจอกเก้าหาง
Encoded date : UTC 2015-08-05 05:02:28
Writing application : mkvmerge v6.2.0 ( Promised Land ) built on Apr 28 2013 12:22:01
Writing library : libebml v1.3.0 + libmatroska v1.4.0

Video
ID : 1
Format : AVC
Format/Info : Advanced Video Codec
Format profile : High@L4.1
Format settings, CABAC : Yes
Format settings, ReFrames : 5 frames
Codec ID : V_MPEG4/ISO/AVC
Duration : 1h 47mn
Bit rate mode : Variable
Bit rate : 4 110 Kbps
Maximum bit rate : 100.0 Mbps
Width : 1 920 pixels
Height : 816 pixels
Display aspect ratio : 2.35:1
Frame rate mode : Constant
Frame rate : 23.976 fps
Color space : YUV
Chroma subsampling : 4:2:0
Bit depth : 8 bits
Scan type : Progressive
Bits/(Pixel*Frame) : 0.109
Stream size : 3.08 GiB (71%)
Title : [Super Mini-HD 1080p HQ] 2 Fast 2 Furious 2003 BluRay 1080p DTS x264 V2-จิ้งจอกเก้าหาง
Writing library : x264 core 130 r2273 b3065e6
Encoding settings : cabac=1 / ref=5 / deblock=1:0:0 / analyse=0x3:0x133 / me=umh / subme=11 / psy=1 / psy_rd=1.00:0.15 / mixed_ref=1 / me_range=64 / chroma_me=1 / trellis=2 / 8x8dct=1 / cqm=0 / deadzone=21,11 / fast_pskip=1 / chroma_qp_offset=-3 / threads=16 / lookahead_threads=1 / sliced_threads=0 / nr=0 / decimate=1 / interlaced=0 / bluray_compat=0 / constrained_intra=0 / bframes=5 / b_pyramid=2 / b_adapt=2 / b_bias=0 / direct=3 / weightb=1 / open_gop=0 / weightp=2 / keyint=250 / keyint_min=23 / scenecut=40 / intra_refresh=0 / rc_lookahead=100 / rc=2pass / mbtree=1 / bitrate=4110 / ratetol=1.0 / qcomp=0.60 / qpmin=0 / qpmax=69 / qpstep=4 / cplxblur=20.0 / qblur=0.5 / vbv_maxrate=99999 / vbv_bufsize=99999 / nal_hrd=vbr / ip_ratio=1.40 / aq=1:1.00
Language : English
Default : Yes
Forced : No

Audio #1
ID : 2
Format : DTS
Format/Info : Digital Theater Systems
Mode : 16
Format settings, Endianness : Big
Codec ID : A_DTS
Duration : 1h 47mn
Bit rate mode : Constant
Bit rate : 768 Kbps
Channel(s) : 6 channels
Channel positions : Front: L C R, Side: L R, LFE
Sampling rate : 48.0 KHz
Bit depth : 24 bits
Compression mode : Lossy
Stream size : 591 MiB (13%)
Title : [THAI DTS FROM BLU-RAY MASTER]
Language : Thai
Default : Yes
Forced : No

Audio #2
ID : 3
Format : DTS
Format/Info : Digital Theater Systems
Mode : 16
Format settings, Endianness : Big
Codec ID : A_DTS
Duration : 1h 47mn
Bit rate mode : Constant
Bit rate : 755 Kbps
Channel(s) : 6 channels
Channel positions : Front: L C R, Side: L R, LFE
Sampling rate : 48.0 KHz
Bit depth : 24 bits
Compression mode : Lossy
Stream size : 581 MiB (13%)
Title : eng dts
Language : English
Default : No
Forced : No

Text #1
ID : 4
Format : VobSub
Codec ID : S_VOBSUB
Codec ID/Info : The same subtitle format used on DVDs
Title : [SUB THAI 480P FROM BLU-RAY]
Language : Thai
Default : No
Forced : No

Text #2
ID : 5
Format : VobSub
Codec ID : S_VOBSUB
Codec ID/Info : The same subtitle format used on DVDs
Title : [SUB THAI 1080P FROM BLU-RAY]
Language : Thai
Default : No
Forced : No

Text #3
ID : 6
Format : PGS
Codec ID : S_HDMV/PGS
Codec ID/Info : The same subtitle format used on BDs/HD-DVDs
Title : [SUB THAI PGS FROM BLU-RAY]
Language : Thai
Default : No
Forced : No

Text #4
ID : 7
Format : PGS
Codec ID : S_HDMV/PGS
Codec ID/Info : The same subtitle format used on BDs/HD-DVDs
Title : [SUB THAI PGS FROM BLU-RAY] UNDER
Language : Thai
Default : No
Forced : No

Text #5
ID : 8
Format : PGS
Codec ID : S_HDMV/PGS
Codec ID/Info : The same subtitle format used on BDs/HD-DVDs
Title : [SUB ENG PGS FROM BLU-RAY]
Language : English
Default : No
Forced : No

Text #6
ID : 9
Format : VobSub
Codec ID : S_VOBSUB
Codec ID/Info : The same subtitle format used on DVDs
Title : [SUB ENG 480P FROM BLU-RAY]
Language : English
Default : No
Forced : No

The Fast and the Furious Tokyo Drift 2006

เนื้อเรื่องย่อ
ขอต้อนรับสู่ยุคของพวกวัยรุ่นนอกคอกที่ใช้ชีวิตอยู่ใ นโลกของการซิ่งบนถนนหลวง เป็นการรุกเข้าสู่โลกแห่งการซิ่งรถที่ถูกปิดซ่อนไว้ข องนครโตเกียว ที่ซึ่งเทรนด์ล่าสุดที่ถือกำเนิดจากญี่ปุ่นกำลังเข้า ครอบงำโลก นั่นคือการซิ่งที่เรียกว่า”ดริฟต์”
General
Unique ID : 245196702758365079276456016501213373661 (0xB8772ACE529F13A9AF18EBD0A6BA24DD)
Complete name : E:E954~13FAST&~1.1-73THEFA~1[Super Mini-HD 1080p HQ] The Fast and the Furious Tokyo Drift 2006.BluRay 1080p DTS x264 V2-จิ้งจอกเก้าหาง.mkv
Format : Matroska
Format version : Version 4 / Version 2
File size : 4.28 GiB
Duration : 1h 44mn
Overall bit rate mode : Variable
Overall bit rate : 5 880 Kbps
Movie name : [Super Mini-HD 1080p HQ] The Fast and the Furious Tokyo Drift 2006.BluRay 1080p DTS x264 V2-จิ้งจอกเก้าหาง
Encoded date : UTC 2015-08-05 05:11:45
Writing application : mkvmerge v6.2.0 ( Promised Land ) built on Apr 28 2013 12:22:01
Writing library : libebml v1.3.0 + libmatroska v1.4.0

Video
ID : 1
Format : AVC
Format/Info : Advanced Video Codec
Format profile : High@L4.1
Format settings, CABAC : Yes
Format settings, ReFrames : 5 frames
Codec ID : V_MPEG4/ISO/AVC
Duration : 1h 44mn
Bit rate mode : Variable
Bit rate : 4 620 Kbps
Maximum bit rate : 100.0 Mbps
Width : 1 920 pixels
Height : 816 pixels
Display aspect ratio : 2.35:1
Frame rate mode : Constant
Frame rate : 23.976 fps
Color space : YUV
Chroma subsampling : 4:2:0
Bit depth : 8 bits
Scan type : Progressive
Bits/(Pixel*Frame) : 0.123
Stream size : 3.32 GiB (78%)
Title : [Super Mini-HD 1080p HQ] The Fast and the Furious Tokyo Drift 2006.BluRay 1080p DTS x264 V2-จิ้งจอกเก้าหาง
Writing library : x264 core 130 r2273 b3065e6
Encoding settings : cabac=1 / ref=5 / deblock=1:0:0 / analyse=0x3:0x133 / me=umh / subme=11 / psy=1 / psy_rd=1.00:0.15 / mixed_ref=1 / me_range=64 / chroma_me=1 / trellis=2 / 8x8dct=1 / cqm=0 / deadzone=21,11 / fast_pskip=1 / chroma_qp_offset=-3 / threads=16 / lookahead_threads=1 / sliced_threads=0 / nr=0 / decimate=1 / interlaced=0 / bluray_compat=0 / constrained_intra=0 / bframes=5 / b_pyramid=2 / b_adapt=2 / b_bias=0 / direct=3 / weightb=1 / open_gop=0 / weightp=2 / keyint=250 / keyint_min=23 / scenecut=40 / intra_refresh=0 / rc_lookahead=100 / rc=2pass / mbtree=1 / bitrate=4620 / ratetol=1.0 / qcomp=0.60 / qpmin=0 / qpmax=69 / qpstep=4 / cplxblur=20.0 / qblur=0.5 / vbv_maxrate=99999 / vbv_bufsize=99999 / nal_hrd=vbr / ip_ratio=1.40 / aq=1:1.00
Language : English
Default : Yes
Forced : No

Audio #1
ID : 2
Format : AC-3
Format/Info : Audio Coding 3
Mode extension : CM (complete main)
Format settings, Endianness : Big
Codec ID : A_AC3
Duration : 1h 44mn
Bit rate mode : Constant
Bit rate : 448 Kbps
Channel(s) : 6 channels
Channel positions : Front: L C R, Side: L R, LFE
Sampling rate : 48.0 KHz
Bit depth : 16 bits
Compression mode : Lossy
Stream size : 334 MiB (8%)
Title : [THAI AC3 FROM BLU-RAY MASTER]
Language : Thai
Default : Yes
Forced : No

Audio #2
ID : 3
Format : DTS
Format/Info : Digital Theater Systems
Mode : 16
Format settings, Endianness : Big
Codec ID : A_DTS
Duration : 1h 44mn
Bit rate mode : Constant
Bit rate : 755 Kbps
Channel(s) : 6 channels
Channel positions : Front: L C R, Side: L R, LFE
Sampling rate : 48.0 KHz
Bit depth : 24 bits
Compression mode : Lossy
Stream size : 563 MiB (13%)
Title : eng dts
Language : English
Default : No
Forced : No

Text #1
ID : 4
Format : VobSub
Codec ID : S_VOBSUB
Codec ID/Info : The same subtitle format used on DVDs
Title : [SUB THAI 480P FROM BLU-RAY]
Language : Thai
Default : No
Forced : No

Text #2
ID : 5
Format : VobSub
Codec ID : S_VOBSUB
Codec ID/Info : The same subtitle format used on DVDs
Title : [SUB THAI 1080P FROM BLU-RAY]
Language : Thai
Default : No
Forced : No

Text #3
ID : 6
Format : PGS
Codec ID : S_HDMV/PGS
Codec ID/Info : The same subtitle format used on BDs/HD-DVDs
Title : [SUB THAI PGS FROM BLU-RAY]
Language : Thai
Default : No
Forced : No

Text #4
ID : 7
Format : PGS
Codec ID : S_HDMV/PGS
Codec ID/Info : The same subtitle format used on BDs/HD-DVDs
Title : [SUB THAI PGS FROM BLU-RAY] UNDER
Language : Thai
Default : No
Forced : No

Text #5
ID : 8
Format : PGS
Codec ID : S_HDMV/PGS
Codec ID/Info : The same subtitle format used on BDs/HD-DVDs
Title : [SUB ENG PGS FROM BLU-RAY]
Language : English
Default : No
Forced : No

Text #6
ID : 9
Format : VobSub
Codec ID : S_VOBSUB
Codec ID/Info : The same subtitle format used on DVDs
Title : [SUB ENG 480P FROM BLU-RAY]
Language : English
Default : No
Forced : No

The Fast and the Furious 2009

เนื้อเรื่องย่อ
เป็นเวลานาน 8 ปีแล้วนับแต่ที่โดมินิค โทเร็ตโต้ (ดีเซล) อดีตนักเลงหัวไม้ ขับรถข้ามชายแดนเม็กซิโก และกลายเป็นพวกหนีเข้าเมือง บัดนี้ ดอมอาศัยอยู่ในบ้านหลังเล็กๆ ริมชายหาดในสาธารณรัฐโดมินิกัน และใช้ชีวิตแบบที่ต้องคอยหลบหนี อยู่กับเล็ตตี้ (ร็อดริเกซ) หนึ่งเดียวจากอดีตของเขา ดอมพยายามเริ่มต้นชีวิตใหม่ แต่เขารู้ดีว่าทางการยังตามล่าเขาอยู่

เมื่อการตายอันน่าเศร้าของคนที่เขารัก ทำให้เขาต้องเดินทางกลับมายังแอลเอ ดอมได้พบกับชายที่เป็นทั้งเพื่อนรักและศัตรูของเขาอย ่างเจ้าหน้าที่ไบรอัน โอคอนเนอร์ (วอล์กเกอร์) เมื่อพวกเขาถูกสถานการณ์บีบให้ต้องเผชิญหน้ากับศัตรู ที่มีร่วมกัน นั่นก็คือเจ้าพ่อค้ายาวิปริตที่กำลังขนยาร้ายเข้าอเม ริกา ดอมและไบรอันต้องสร้างความไว้วางใจต่อกันขึ้นมาใหม่ ถ้าพวกเขาอยากเอาชนะศัตรู และล้างแค้นให้กับเหตุโศกนาฏกรรมที่ศัตรูตัวร้ายกระท ำต่อครอบครัวเล็กๆ ของพวกเขา
General
Unique ID : 178658867034684174948464246169628044741 (0x866872393223FA98A978EF5F6813EDC5)
Complete name : E:หนังไตรภาค3..Fast & Furious 7-Movie Collection (2001-2015) เร็ว…แรงทะลุนรก 1-74.Fast and Furious 4 (2009) เร็ว…แรงทะลุนรก 4 ยกทีมซิ่ง แรงทะลุไมล์[Super Mini-HD 1080p HQ] The Fast and the Furious 2009 BluRay 1080p DTS x264 V2-จิ้งจอกเก้าหาง.mkv
Format : Matroska
Format version : Version 4 / Version 2
File size : 4.29 GiB
Duration : 1h 46mn
Overall bit rate mode : Variable
Overall bit rate : 5 749 Kbps
Movie name : [Super Mini-HD 1080p HQ] The Fast and the Furious 2009 BluRay 1080p DTS x264 V2-จิ้งจอกเก้าหาง
Encoded date : UTC 2015-08-05 05:18:29
Writing application : mkvmerge v6.2.0 ( Promised Land ) built on Apr 28 2013 12:22:01
Writing library : libebml v1.3.0 + libmatroska v1.4.0

Video
ID : 1
Format : AVC
Format/Info : Advanced Video Codec
Format profile : High@L4.1
Format settings, CABAC : Yes
Format settings, ReFrames : 5 frames
Codec ID : V_MPEG4/ISO/AVC
Duration : 1h 46mn
Bit rate mode : Variable
Bit rate : 4 150 Kbps
Maximum bit rate : 100.0 Mbps
Width : 1 920 pixels
Height : 800 pixels
Display aspect ratio : 2.40:1
Frame rate mode : Constant
Frame rate : 23.976 fps
Color space : YUV
Chroma subsampling : 4:2:0
Bit depth : 8 bits
Scan type : Progressive
Bits/(Pixel*Frame) : 0.113
Stream size : 3.07 GiB (72%)
Title : [Super Mini-HD 1080p HQ] The Fast and the Furious 2009 BluRay 1080p DTS x264 V2-จิ้งจอกเก้าหาง
Writing library : x264 core 130 r2273 b3065e6
Encoding settings : cabac=1 / ref=5 / deblock=1:0:0 / analyse=0x3:0x133 / me=umh / subme=11 / psy=1 / psy_rd=1.00:0.15 / mixed_ref=1 / me_range=64 / chroma_me=1 / trellis=2 / 8x8dct=1 / cqm=0 / deadzone=21,11 / fast_pskip=1 / chroma_qp_offset=-3 / threads=16 / lookahead_threads=1 / sliced_threads=0 / nr=0 / decimate=1 / interlaced=0 / bluray_compat=0 / constrained_intra=0 / bframes=5 / b_pyramid=2 / b_adapt=2 / b_bias=0 / direct=3 / weightb=1 / open_gop=0 / weightp=2 / keyint=250 / keyint_min=23 / scenecut=40 / intra_refresh=0 / rc_lookahead=100 / rc=2pass / mbtree=1 / bitrate=4150 / ratetol=1.0 / qcomp=0.60 / qpmin=0 / qpmax=69 / qpstep=4 / cplxblur=20.0 / qblur=0.5 / vbv_maxrate=99999 / vbv_bufsize=99999 / nal_hrd=vbr / ip_ratio=1.40 / aq=1:1.00
Language : English
Default : Yes
Forced : No

Audio #1
ID : 2
Format : DTS
Format/Info : Digital Theater Systems
Mode : 16
Format settings, Endianness : Big
Codec ID : A_DTS
Duration : 1h 46mn
Bit rate mode : Constant
Bit rate : 768 Kbps
Channel(s) : 6 channels
Channel positions : Front: L C R, Side: L R, LFE
Sampling rate : 48.0 KHz
Bit depth : 24 bits
Compression mode : Lossy
Stream size : 586 MiB (13%)
Title : [THAI DTS FROM BLU-RAY MASTER]
Language : Thai
Default : Yes
Forced : No

Audio #2
ID : 3
Format : DTS
Format/Info : Digital Theater Systems
Mode : 16
Format settings, Endianness : Big
Codec ID : A_DTS
Duration : 1h 46mn
Bit rate mode : Constant
Bit rate : 755 Kbps
Channel(s) : 6 channels
Channel positions : Front: L C R, Side: L R, LFE
Sampling rate : 48.0 KHz
Bit depth : 24 bits
Compression mode : Lossy
Stream size : 576 MiB (13%)
Title : eng dts
Language : English
Default : No
Forced : No

Text #1
ID : 4
Format : VobSub
Codec ID : S_VOBSUB
Codec ID/Info : The same subtitle format used on DVDs
Title : [SUB THAI 480P FROM BLU-RAY]
Language : Thai
Default : No
Forced : No

Text #2
ID : 5
Format : VobSub
Codec ID : S_VOBSUB
Codec ID/Info : The same subtitle format used on DVDs
Title : [SUB THAI 1080P FROM BLU-RAY]
Language : Thai
Default : No
Forced : No

Text #3
ID : 6
Format : PGS
Codec ID : S_HDMV/PGS
Codec ID/Info : The same subtitle format used on BDs/HD-DVDs
Title : [SUB THAI PGS FROM BLU-RAY]
Language : Thai
Default : No
Forced : No

Text #4
ID : 7
Format : PGS
Codec ID : S_HDMV/PGS
Codec ID/Info : The same subtitle format used on BDs/HD-DVDs
Title : [SUB THAI PGS FROM BLU-RAY] UNDER
Language : Thai
Default : No
Forced : No

Text #5
ID : 8
Format : PGS
Codec ID : S_HDMV/PGS
Codec ID/Info : The same subtitle format used on BDs/HD-DVDs
Title : [SUB ENG PGS FROM BLU-RAY]
Language : English
Default : No
Forced : No

Text #6
ID : 9
Format : VobSub
Codec ID : S_VOBSUB
Codec ID/Info : The same subtitle format used on DVDs
Title : [SUB ENG 480P FROM BLU-RAY]
Language : English
Default : No
Forced : No

เนื้อเรื่องย่อ ไบรอัน โอคอนเนอร์ อดีตตำรวจ (พอล วอล์กเกอร์) จับคู่กับอดีตวายร้าย ดอม โทเร็ตโต้ (วิน ดีเซล) ซิ่งไปบนถนนคนละฝั่งกับกฎหมาย ดเวย์น จอห์นสัน ขอร่วมทีมนักแสดงขวัญใจคนดูอย่าง จอร์ดาน่า บรูว์สเตอร์, คริส “ลูดาคริส” บริดเจส, ไทรีส กิ๊บสัน, ซุง กัง, กัลป์ กาด็อท, แม็ตต์ ชุลซ์, เทโก้ คัลเดอรอน และดอนโอมาร์ ในงานซิ่งส์เดิมพันสูงสุดเท่าที่เคยมีมา
General
Unique ID : 199965025042981574442992032550523345062 (0x966FDCEAAFEB049597AFDECBB5F998A6)
Complete name : E:หนังไตรภาค3..Fast & Furious 7-Movie Collection (2001-2015) เร็ว…แรงทะลุนรก 1-75.Fast and Furious 5 (2011) เร็ว…แรงทะลุนรก 5[Super Mini-HD 1080p HQ] Fast Five 2011 BluRay 1080p DTS x264 V2-จิ้งจอกเก้าหาง.mkv
Format : Matroska
Format version : Version 4 / Version 2
File size : 4.32 GiB
Duration : 2h 10mn
Overall bit rate mode : Variable
Overall bit rate : 4 750 Kbps
Movie name : [Super Mini-HD 1080p HQ] Fast Five 2011 BluRay 1080p DTS x264 V2-จิ้งจอกเก้าหาง
Encoded date : UTC 2015-08-05 05:24:45
Writing application : mkvmerge v6.2.0 ( Promised Land ) built on Apr 28 2013 12:22:01
Writing library : libebml v1.3.0 + libmatroska v1.4.0

Video
ID : 1
Format : AVC
Format/Info : Advanced Video Codec
Format profile : High@L4.1
Format settings, CABAC : Yes
Format settings, ReFrames : 5 frames
Codec ID : V_MPEG4/ISO/AVC
Duration : 2h 10mn
Bit rate mode : Variable
Bit rate : 3 450 Kbps
Maximum bit rate : 100.0 Mbps
Width : 1 920 pixels
Height : 816 pixels
Display aspect ratio : 2.35:1
Frame rate mode : Constant
Frame rate : 23.976 fps
Color space : YUV
Chroma subsampling : 4:2:0
Bit depth : 8 bits
Scan type : Progressive
Bits/(Pixel*Frame) : 0.092
Stream size : 3.14 GiB (73%)
Title : [Super Mini-HD 1080p HQ] Fast Five 2011 BluRay 1080p DTS x264 V2-จิ้งจอกเก้าหาง
Writing library : x264 core 130 r2273 b3065e6
Encoding settings : cabac=1 / ref=5 / deblock=1:0:0 / analyse=0x3:0x133 / me=umh / subme=11 / psy=1 / psy_rd=1.00:0.15 / mixed_ref=1 / me_range=64 / chroma_me=1 / trellis=2 / 8x8dct=1 / cqm=0 / deadzone=21,11 / fast_pskip=1 / chroma_qp_offset=-3 / threads=16 / lookahead_threads=1 / sliced_threads=0 / nr=0 / decimate=1 / interlaced=0 / bluray_compat=0 / constrained_intra=0 / bframes=5 / b_pyramid=2 / b_adapt=2 / b_bias=0 / direct=3 / weightb=1 / open_gop=0 / weightp=2 / keyint=250 / keyint_min=23 / scenecut=40 / intra_refresh=0 / rc_lookahead=100 / rc=2pass / mbtree=1 / bitrate=3450 / ratetol=1.0 / qcomp=0.60 / qpmin=0 / qpmax=69 / qpstep=4 / cplxblur=20.0 / qblur=0.5 / vbv_maxrate=99999 / vbv_bufsize=99999 / nal_hrd=vbr / ip_ratio=1.40 / aq=1:1.00
Language : English
Default : Yes
Forced : No

Audio #1
ID : 2
Format : AC-3
Format/Info : Audio Coding 3
Mode extension : CM (complete main)
Format settings, Endianness : Big
Codec ID : A_AC3
Duration : 2h 10mn
Bit rate mode : Constant
Bit rate : 448 Kbps
Channel(s) : 6 channels
Channel positions : Front: L C R, Side: L R, LFE
Sampling rate : 48.0 KHz
Bit depth : 16 bits
Compression mode : Lossy
Stream size : 418 MiB (9%)
Title : [THAI AC3 FROM BLU-RAY MASTER]
Language : Thai
Default : Yes
Forced : No

Audio #2
ID : 3
Format : DTS
Format/Info : Digital Theater Systems
Mode : 16
Format settings, Endianness : Big
Codec ID : A_DTS
Duration : 2h 10mn
Bit rate mode : Constant
Bit rate : 755 Kbps
Channel(s) : 6 channels
Channel positions : Front: L C R, Side: L R, LFE
Sampling rate : 48.0 KHz
Bit depth : 24 bits
Compression mode : Lossy
Stream size : 703 MiB (16%)
Title : eng dts
Language : English
Default : No
Forced : No

Text #1
ID : 4
Format : VobSub
Codec ID : S_VOBSUB
Codec ID/Info : The same subtitle format used on DVDs
Title : [SUB THAI 480P FROM BLU-RAY]
Language : Thai
Default : No
Forced : No

Text #2
ID : 5
Format : VobSub
Codec ID : S_VOBSUB
Codec ID/Info : The same subtitle format used on DVDs
Title : [SUB THAI 1080P FROM BLU-RAY]
Language : Thai
Default : No
Forced : No

Text #3
ID : 6
Format : PGS
Codec ID : S_HDMV/PGS
Codec ID/Info : The same subtitle format used on BDs/HD-DVDs
Title : [SUB THAI PGS FROM BLU-RAY]
Language : Thai
Default : No
Forced : No

Text #4
ID : 7
Format : PGS
Codec ID : S_HDMV/PGS
Codec ID/Info : The same subtitle format used on BDs/HD-DVDs
Title : [SUB THAI PGS FROM BLU-RAY] UNDER
Language : Thai
Default : No
Forced : No

Text #5
ID : 8
Format : PGS
Codec ID : S_HDMV/PGS
Codec ID/Info : The same subtitle format used on BDs/HD-DVDs
Title : [SUB ENG PGS FROM BLU-RAY]
Language : English
Default : No
Forced : No

Text #6
ID : 9
Format : VobSub
Codec ID : S_VOBSUB
Codec ID/Info : The same subtitle format used on DVDs
Title : [SUB ENG 480P FROM BLU-RAY]
Language : English
Default : No
Forced : No

Fast and Furious 6

เนื้อเรื่องย่อ นับตั้งแต่การปล้นที่ริโอของดอม (ดีเซล) และไบรอัน (วอล์คเกอร์) ได้ทลายอาณาจักรของราชายาเสพติดและพวกเขาก็จากมาพร้อ มกับเงิน 100 ล้านเหรียญ ตัวเอกของเราต่างก็กระจัดกระจายกันไปทั่วโลก แต่การที่พวกเขาไม่สามารถกลับบ้านเกิดและต้องใช้ชีวิ ตอย่างหลบๆ ซ่อนๆ ทำให้ชีวิตของพวกเขาเหมือนขาดอะไรบางอย่าง
ในขณะเดียวกัน ฮ็อบส์ (จอห์นสัน) ก็กำลังสืบร่องรอยขององค์กรนักซิ่งรับจ้างฝีมือพระกา ฬที่ฝากผลงานอาชญากรรม ไว้ใน 12 ประเทศ โดยผู้อยู่เบื้องหลังองค์กรนี้ (อีวานส์) ได้รับความช่วยเหลือจากมือขวาไร้ปรานี ที่ถูกเปิดเผยว่าคือ เล็ตตี้ (โรดริเกซ) หญิงคนรักที่ดอมคิดว่าเสียชีวิตไปแล้ว หนทางเดียวที่จะหยุดยั้งพวกเขาได้คือการเอาชนะพวกเขา ในการซิ่ง ฮ็อบส์จึงขอให้ดอมรวมทีมนักซิ่งของเขาในลอนดอน โดยค่าตอบแทนเป็นการอภัยโทษให้กับพวกเขาทั้งหมดเพื่อ ที่พวกเขาจะสามารถกลับ บ้านและไปใช้ชีวิตครอบครัวที่สมบูรณ์ได้เหมือนเดิม
General
Unique ID : 215671243899037256948688881940106521481 (0xA240C54B13CF122AADC5BCDBBF8B2B89)
Complete name : E:หนังไตรภาค3..Fast & Furious 7-Movie Collection (2001-2015) เร็ว…แรงทะลุนรก 1-76.Fast and Furious 6 (2013) เร็ว…แรงทะลุนรก 6[Super Mini-HD 1080p HQ] Fast and Furious 6 2013 EXTENDED BluRay 1080p DTS x264 V2-จิ้งจอกเก้าหาง.mkv
Format : Matroska
Format version : Version 4 / Version 2
File size : 4.35 GiB
Duration : 2h 11mn
Overall bit rate mode : Variable
Overall bit rate : 4 751 Kbps
Movie name : [Super Mini-HD 1080p HQ] Fast and Furious 6 2013 EXTENDED BluRay 1080p DTS x264 V2-จิ้งจอกเก้าหาง
Encoded date : UTC 2015-08-05 05:32:34
Writing application : mkvmerge v6.2.0 ( Promised Land ) built on Apr 28 2013 12:22:01
Writing library : libebml v1.3.0 + libmatroska v1.4.0

Video
ID : 1
Format : AVC
Format/Info : Advanced Video Codec
Format profile : High@L4.1
Format settings, CABAC : Yes
Format settings, ReFrames : 5 frames
Codec ID : V_MPEG4/ISO/AVC
Duration : 2h 11mn
Bit rate mode : Variable
Bit rate : 3 130 Kbps
Maximum bit rate : 100.0 Mbps
Width : 1 920 pixels
Height : 816 pixels
Display aspect ratio : 2.35:1
Frame rate mode : Constant
Frame rate : 23.976 fps
Color space : YUV
Chroma subsampling : 4:2:0
Bit depth : 8 bits
Scan type : Progressive
Bits/(Pixel*Frame) : 0.083
Stream size : 2.87 GiB (66%)
Title : [Super Mini-HD 1080p HQ] Fast and Furious 6 2013 EXTENDED BluRay 1080p DTS x264 V2-จิ้งจอกเก้าหาง
Writing library : x264 core 130 r2273 b3065e6
Encoding settings : cabac=1 / ref=5 / deblock=1:0:0 / analyse=0x3:0x133 / me=umh / subme=11 / psy=1 / psy_rd=1.00:0.15 / mixed_ref=1 / me_range=64 / chroma_me=1 / trellis=2 / 8x8dct=1 / cqm=0 / deadzone=21,11 / fast_pskip=1 / chroma_qp_offset=-3 / threads=16 / lookahead_threads=1 / sliced_threads=0 / nr=0 / decimate=1 / interlaced=0 / bluray_compat=0 / constrained_intra=0 / bframes=5 / b_pyramid=2 / b_adapt=2 / b_bias=0 / direct=3 / weightb=1 / open_gop=0 / weightp=2 / keyint=250 / keyint_min=23 / scenecut=40 / intra_refresh=0 / rc_lookahead=100 / rc=2pass / mbtree=1 / bitrate=3130 / ratetol=1.0 / qcomp=0.60 / qpmin=0 / qpmax=69 / qpstep=4 / cplxblur=20.0 / qblur=0.5 / vbv_maxrate=99999 / vbv_bufsize=99999 / nal_hrd=vbr / ip_ratio=1.40 / aq=1:1.00
Language : English
Default : Yes
Forced : No

Audio #1
ID : 2
Format : DTS
Format/Info : Digital Theater Systems
Mode : 16
Format settings, Endianness : Big
Codec ID : A_DTS
Duration : 2h 11mn
Bit rate mode : Constant
Bit rate : 768 Kbps
Channel(s) : 6 channels
Channel positions : Front: L C R, Side: L R, LFE
Sampling rate : 48.0 KHz
Bit depth : 24 bits
Compression mode : Lossy
Stream size : 720 MiB (16%)
Title : [THAI DTS FROM BLU-RAY MASTER]
Language : Thai
Default : Yes
Forced : No

Audio #2
ID : 3
Format : DTS
Format/Info : Digital Theater Systems
Mode : 16
Format settings, Endianness : Big
Codec ID : A_DTS
Duration : 2h 11mn
Bit rate mode : Constant
Bit rate : 755 Kbps
Channel(s) : 6 channels
Channel positions : Front: L C R, Side: L R, LFE
Sampling rate : 48.0 KHz
Bit depth : 24 bits
Compression mode : Lossy
Stream size : 707 MiB (16%)
Title : eng dts
Language : English
Default : No
Forced : No

Text #1
ID : 4
Format : VobSub
Codec ID : S_VOBSUB
Codec ID/Info : The same subtitle format used on DVDs
Title : [SUB THAI 480P FROM BLU-RAY]
Language : Thai
Default : No
Forced : No

Text #2
ID : 5
Format : VobSub
Codec ID : S_VOBSUB
Codec ID/Info : The same subtitle format used on DVDs
Title : [SUB THAI 1080P FROM BLU-RAY]
Language : Thai
Default : No
Forced : No

Text #3
ID : 6
Format : PGS
Codec ID : S_HDMV/PGS
Codec ID/Info : The same subtitle format used on BDs/HD-DVDs
Title : [SUB THAI PGS FROM BLU-RAY]
Language : Thai
Default : No
Forced : No

Text #4
ID : 7
Format : PGS
Codec ID : S_HDMV/PGS
Codec ID/Info : The same subtitle format used on BDs/HD-DVDs
Title : [SUB THAI PGS FROM BLU-RAY] UNDER
Language : Thai
Default : No
Forced : No

Text #5
ID : 8
Format : PGS
Codec ID : S_HDMV/PGS
Codec ID/Info : The same subtitle format used on BDs/HD-DVDs
Title : [SUB ENG PGS FROM BLU-RAY]
Language : English
Default : No
Forced : No

Text #6
ID : 9
Format : VobSub
Codec ID : S_VOBSUB
Codec ID/Info : The same subtitle format used on DVDs
Title : [SUB ENG 480P FROM BLU-RAY]
Language : English
Default : No
Forced : No

Fast & Furious 7 -เร็ว…แรงทะลุนรก

รายละเอียดเรื่องย่อ/Synopsis
หลังจาก โอเว่น ชอว์ (ลุค อีวานส์) โดนจัดเต็มในตอนจบของ Fast & Furious 6 ทำให้เด้คคาร์ด ชอว์ (เจสัน สเตแธม) พี่ชายตัวแสบ อดีตมือสังหารหน่วยรบพิเศษ สุดคลั่ง บุกล้างแค้นคิดบัญชีกับคนที่ทำร้ายน้องชาย งานนี้ทั้งทีมดอม (วิน ดีเซล) และฮ็อบส์ (ดเวยน์ จอห์นสัน) โดนจัดเต็มซึ่งฮาน (ซุง คัง) เป็นคนแรกที่ต้องเสียชีวิต พร้อมกับการส่งระเบิดไประเบิดบ้านดอม และที่ทำงานของฮ็อบส์ ก่อนเปิดฉากไล่ล่าเด้คคาร์ด ชอว์ ของดอมและทีม ฝ่าย FBI มิสเตอร์โนบอดี้ (เคิร์ท รัสแซล) ก็มีข้อเสนอมาแลกเปลี่ยนโดยให้ดอมและทีมไปตามเอาตัวแ รมซี่ย์แฮกเกอร์ ที่สร้างโปรแกรมดวงตาเทพ โปรแกรมแกะรอยระดับเทพ ซึ่งโดนผู้ก่อการร้ายโมซี่ จาคานดี้ (ดิจิมอน ฮาวน์ซู) จับตัวไป หากงานนี้สำเร็จดอมและทีมก็จะได้รับการช่วยเหลือในกา รตามจับเด้คคาร์ด ชอว์ เมื่อครอบครัวต้องกลับมารวมตัวกันเพื่อการล้างแค้นอย ่างแสบสันอีกครั้ง
General
Unique ID : 234543887398660351280877129501577472929 (0xB07382753CE037D2852CD03B424A6BA1)
Complete name : E:หนังไตรภาค3..Fast & Furious 7-Movie Collection (2001-2015) เร็ว…แรงทะลุนรก 1-77.Fast & Furious 7 (2015) เร็ว…แรงทะลุนรก 7[Super Mini-HD 1080p HQ] Fast and Furious 7 2015 EXTENDED BluRay 1080p DTS x264-จิ้งจอกเก้าหาง.mkv
Format : Matroska
Format version : Version 4 / Version 2
File size : 4.35 GiB
Duration : 2h 19mn
Overall bit rate mode : Variable
Overall bit rate : 4 451 Kbps
Movie name : [Super Mini-HD 1080p HQ] Fast and Furious 7 2015 EXTENDED BluRay 1080p DTS x264-จิ้งจอกเก้าหาง
Encoded date : UTC 2015-08-05 05:44:58
Writing application : mkvmerge v6.2.0 ( Promised Land ) built on Apr 28 2013 12:22:01
Writing library : libebml v1.3.0 + libmatroska v1.4.0

Video
ID : 1
Format : AVC
Format/Info : Advanced Video Codec
Format profile : High@L4.1
Format settings, CABAC : Yes
Format settings, ReFrames : 5 frames
Codec ID : V_MPEG4/ISO/AVC
Duration : 2h 19mn
Bit rate mode : Variable
Bit rate : 2 820 Kbps
Maximum bit rate : 100.0 Mbps
Width : 1 920 pixels
Height : 800 pixels
Display aspect ratio : 2.40:1
Frame rate mode : Constant
Frame rate : 23.976 fps
Color space : YUV
Chroma subsampling : 4:2:0
Bit depth : 8 bits
Scan type : Progressive
Bits/(Pixel*Frame) : 0.077
Stream size : 2.78 GiB (64%)
Title : [Super Mini-HD 1080p HQ] Fast and Furious 7 2015 EXTENDED BluRay 1080p DTS x264-จิ้งจอกเก้าหาง
Writing library : x264 core 146 r2538 121396c
Encoding settings : cabac=1 / ref=5 / deblock=1:0:0 / analyse=0x3:0x133 / me=umh / subme=11 / psy=1 / psy_rd=1.00:0.20 / mixed_ref=1 / me_range=64 / chroma_me=1 / trellis=2 / 8x8dct=1 / cqm=0 / deadzone=21,11 / fast_pskip=1 / chroma_qp_offset=-3 / threads=16 / lookahead_threads=1 / sliced_threads=0 / nr=0 / decimate=1 / interlaced=0 / bluray_compat=0 / constrained_intra=0 / bframes=5 / b_pyramid=2 / b_adapt=2 / b_bias=0 / direct=3 / weightb=1 / open_gop=0 / weightp=2 / keyint=250 / keyint_min=23 / scenecut=40 / intra_refresh=0 / rc_lookahead=100 / rc=2pass / mbtree=1 / bitrate=2820 / ratetol=1.0 / qcomp=0.60 / qpmin=0 / qpmax=69 / qpstep=4 / cplxblur=20.0 / qblur=0.5 / vbv_maxrate=99999 / vbv_bufsize=99999 / nal_hrd=vbr / filler=0 / ip_ratio=1.40 / aq=1:1.00
Language : English
Default : Yes
Forced : No

Audio #1
ID : 2
Format : DTS
Format/Info : Digital Theater Systems
Mode : 16
Format settings, Endianness : Big
Codec ID : A_DTS
Duration : 2h 19mn
Bit rate mode : Constant
Bit rate : 768 Kbps
Channel(s) : 6 channels
Channel positions : Front: L C R, Side: L R, LFE
Sampling rate : 48.0 KHz
Bit depth : 24 bits
Compression mode : Lossy
Stream size : 769 MiB (17%)
Title : [THAI DTS FROM BLU-RAY MASTER]
Language : Thai
Default : Yes
Forced : No

Audio #2
ID : 3
Format : DTS
Format/Info : Digital Theater Systems
Mode : 16
Format settings, Endianness : Big
Codec ID : A_DTS
Duration : 2h 19mn
Bit rate mode : Constant
Bit rate : 755 Kbps
Channel(s) : 6 channels
Channel positions : Front: L C R, Side: L R, LFE
Sampling rate : 48.0 KHz
Bit depth : 24 bits
Compression mode : Lossy
Stream size : 755 MiB (17%)
Title : eng dts
Language : English
Default : No
Forced : No

Text #1
ID : 4
Format : VobSub
Codec ID : S_VOBSUB
Codec ID/Info : The same subtitle format used on DVDs
Title : [SUB THAI 480P FROM BLU-RAY]
Language : Thai
Default : No
Forced : No

Text #2
ID : 5
Format : VobSub
Codec ID : S_VOBSUB
Codec ID/Info : The same subtitle format used on DVDs
Title : [SUB THAI 1080P FROM BLU-RAY]
Language : Thai
Default : No
Forced : No

Text #3
ID : 6
Format : PGS
Codec ID : S_HDMV/PGS
Codec ID/Info : The same subtitle format used on BDs/HD-DVDs
Title : [SUB THAI PGS FROM BLU-RAY]
Language : Thai
Default : No
Forced : No

Text #4
ID : 7
Format : PGS
Codec ID : S_HDMV/PGS
Codec ID/Info : The same subtitle format used on BDs/HD-DVDs
Title : [SUB THAI PGS FROM BLU-RAY] UNDER
Language : Thai
Default : No
Forced : No

Text #5
ID : 8
Format : PGS
Codec ID : S_HDMV/PGS
Codec ID/Info : The same subtitle format used on BDs/HD-DVDs
Title : [SUB ENG PGS FROM BLU-RAY]
Language : English
Default : No
Forced : No

Text #6
ID : 9
Format : VobSub
Codec ID : S_VOBSUB
Codec ID/Info : The same subtitle format used on DVDs
Title : [SUB ENG 480P FROM BLU-RAY]
Language : English
Default : No
Forced : No

1
http://cornfile.com/liv54hzloj0u
2
http://cornfile.com/pxvqv6gmzry1
3
http://cornfile.com/z8qifxaur6mf
4
http://cornfile.com/spswiicykzla
5
http://cornfile.com/i88vlcconj8s
6
http://cornfile.com/8montmtuhvhu
7
http://cornfile.com/5q6zrspflrfp