HD Blu-Ray 1080p หนังเก่าน่าสะสม

รั่ง]-[* สยองขวัญคลาสสิค *] Stephen King s Cat s Eye (1985) | วันผวา [1080p HQ] [พากย์ไทย 2.0 + อังกฤษ 2.0] [พากย์ไทย + ซับอังกฤษ]

แนวหนัง ระทึกขวัญในรูปแบบเรื่องสั้น 3 ตอน

ตอนที่ 1 Quitter s Inc เรื่องของริชาร์ด มอร์ริสัน (James Woods) ชายหนุ่มผู้คิดจะเลิกสูบบุหรี่ เขาจึงเข้าไปรับบริการของบริษัทแห่งหนึ่ง ที่โฆษณาว่าจะทำให้คุณเลิกบุหรี่ได้ ตลอดไป!

ตอนที่ 2 The Ledge เรื่องของ จอห์นนี่ นอร์ริส (Robert Hays) ชายหนุ่มผู้กำลังจะหนีไปกับคนรักของนายจ้าง (Kenneth McMillan) แต่แล้วนายจ้างก็จับได้ ทว่าแทนที่นายจ้างจะฆ่าจอห์นนี่ เขากลับยื่นข้อเสนอให้ หากจอห์นนี่ทำได้ก็จะเป็นอิสระ พร้อมได้เงินอีกต่างหาก และข้อเสนอนั้นคือ …

ตอนที่ 3 The General เรื่องของแมวตัวหนึ่งที่เดินทางมาเพื่อปกป้องหนูน้อยอแมนด้า (Drew Barrymore) ให้พันจากปีศาจลึกลับที่กำลังจะดูดพลังชีวิตจากเธอ !

Format                         : Matroska
Format version                 : Version 2
File size                      : 3.57 GiB
Duration                       : 1 h 34 min
Overall bit rate               : 5 396 kb/s
Movie name                     : {MiniHQ} Cat s.Eye.1985.1080p.DD.5.1.BrRip.x264-joythun
Encoded date                   : UTC 2017-03-27 06:26:43
Writing application            : mkvmerge v5.8.0 ( No Sleep / Pillow ) built on Sep  2 2012 15:37:04
Writing library                : libebml v1.2.3 + libmatroska v1.3.0

Video
ID                             : 1
Format                         : AVC
Format/Info                    : Advanced Video Codec
Format profile                 : High@L4.1
Format settings, CABAC         : Yes
Format settings, ReFrames      : 4 frames
Codec ID                       : V_MPEG4/ISO/AVC
Duration                       : 1 h 34 min
Bit rate                       : 4 759 kb/s
Width                          : 1 920 pixels
Height                         : 824 pixels
Display aspect ratio           : 2.35:1
Frame rate mode                : Constant
Frame rate                     : 23.976 (24000/1001) FPS
Color space                    : YUV
Chroma subsampling             : 4:2:0
Bit depth                      : 8 bits
Scan type                      : Progressive
Bits/(Pixel*Frame)             : 0.125
Stream size                    : 3.07 GiB (86%)
Title                          : {MiniHQ} Cat s.Eye.1985.1080p.DD.5.1.BrRip.x264-joythun
Writing library                : x264 core 146 r2538 121396c
Encoding settings              : cabac=1 / ref=4 / deblock=1:0:0 / analyse=0x3:0x113 / me=umh / subme=10 / psy=1 / psy_rd=1.00:0.00 / mixed_ref=1 / me_range=32 / chroma_me=1 / trellis=2 / 8x8dct=1 / cqm=0 / deadzone=21,11 / fast_pskip=0 / chroma_qp_offset=-2 / threads=6 / lookahead_threads=1 / sliced_threads=0 / nr=0 / decimate=1 / interlaced=0 / bluray_compat=0 / constrained_intra=0 / bframes=4 / b_pyramid=2 / b_adapt=2 / b_bias=0 / direct=3 / weightb=1 / open_gop=0 / weightp=2 / keyint=250 / keyint_min=23 / scenecut=40 / intra_refresh=0 / rc_lookahead=50 / rc=2pass / mbtree=1 / bitrate=4759 / ratetol=1.0 / qcomp=0.60 / qpmin=0 / qpmax=69 / qpstep=4 / cplxblur=20.0 / qblur=0.5 / vbv_maxrate=14000 / vbv_bufsize=14000 / nal_hrd=none / filler=0 / ip_ratio=1.40 / aq=1:1.00
Language                       : English
Default                        : Yes
Forced                         : Yes

Audio #1
ID                             : 2
Format                         : AC-3
Format/Info                    : Audio Coding 3
Mode extension                 : CM (complete main)
Format settings, Endianness    : Big
Codec ID                       : A_AC3
Duration                       : 1 h 34 min
Bit rate mode                  : Constant
Bit rate                       : 192 kb/s
Channel(s)                     : 2 channels
Channel positions              : Front: L R
Sampling rate                  : 48.0 kHz
Frame rate                     : 31.250 FPS (1536 spf)
Compression mode               : Lossy
Delay relative to video        : 20 s 0 ms
Stream size                    : 130 MiB (4%)
Title                          : THAI VCD 2.0 @ 192 Kbps
Language                       : Thai
Default                        : Yes
Forced                         : Yes

Audio #2
ID                             : 3
Format                         : AC-3
Format/Info                    : Audio Coding 3
Mode extension                 : CM (complete main)
Format settings, Endianness    : Big
Codec ID                       : A_AC3
Duration                       : 1 h 34 min
Bit rate mode                  : Constant
Bit rate                       : 448 kb/s
Channel(s)                     : 6 channels
Channel positions              : Front: L C R, Side: L R, LFE
Sampling rate                  : 48.0 kHz
Frame rate                     : 31.250 FPS (1536 spf)
Compression mode               : Lossy
Stream size                    : 303 MiB (8%)
Title                          : ENG 5.1 @ 448 Kbps
Language                       : English
Default                        : No
Forced                         : No
Statistics Tags Issue          : mkvmerge v7.8.0 ( River Man ) 32bit built on Apr  3 2015 12:11:22 2016-08-17 00:31:12 / mkvmerge v5.8.0 ( No Sleep / Pillow ) built on Sep  2 2012 15:37:04 2017-03-27 06:26:43
FromStats_BitRate              : 448000
FromStats_Duration             : 01:34:36.480000000
FromStats_FrameCount           : 177390
FromStats_StreamSize           : 317882880

Text
ID                             : 4
Format                         : UTF-8
Codec ID                       : S_TEXT/UTF8
Codec ID/Info                  : UTF-8 Plain Text
Title                          : ENG SRT
Language                       : English
Default                        : No
Forced                         : No

Menu
00:00:00.000                   : en:Chapter 1
00:15:17.917                   : en:Chapter 2
00:27:08.460                   : en:Chapter 3
00:39:09.013                   : en:Chapter 4
00:51:53.443                   : en:Chapter 5
01:04:28.531                   : en:Chapter 6
01:16:59.281                   : en:Chapter 7
01:27:33.248                   : en:Chapter 8






 


_MiniHQ__Cat_s.Eye.1985.1080p.DD.5.1.BrRip.x264-joythun.mkv – 3829003067
 

Facebook Comments

About the author

one4up .com

Add Comment

Click here to post a comment

Featured

Posts

HD Blu-Ray 1080p

[ฝรั่ง]-ใหม่ร้อนๆ! +[* เสียงไทยมาสเตอร์ *] Sleepless (2017) : คืนเดือด คนระห่ำ [*CtHts@SiamBIT*] • [พากย์ไทย มาสเตอร์ + เสียงอังกฤษ DTS] • [บรรยาย อังกฤษ] • [เสียงไทย MASTER] • [ เล็กพริกขี้หนู 1080p HQ ] Or *• ไฟล์เล็ก 1080p คุณภาพสูง

Advertisement