HD Blu-Ray 1080p หนังเก่าน่าสะสม

[ฝรั่ง]-[Mini-HD]- **ฉบับเต็ม สำหรับนักสะสม** Gladiator (2000) (Extended cut) แกลดดิเอเตอร์ นักรบผู้กล้า ผ่าแผ่นดินทรราช [Master] [1080p HQ.] [เสียงไทยมาสเตอร์ 5.1 + ENG DTS ] [บรรยายไทย + อังกฤษ] -[เสียง+ซับ From BluRay Master : +ซับไทย PGS คมชัดถึงใจ][.MKV]

                                                                                                                                                                                               เรื่องย่อ….Gladiator [ExtendedCut] (2000) นักรบผู้กล้าผ่าแผ่นดินทรราช
เมื่อโอรสผู้ชั่วร้ายขึ้นครองบัลลังก์โดยมิชอบ ขับไล่และ.เหยียบให้ แม็กซีมัส.(รัสเซล โคลว์).
ขุนศึกผู้เกรียงไกรกลายเป็นทาส ความห้าวหาญของแม็กซีมัสในสนามประลอง นักสู้ ได้นำเขาสู่โคลอสเซี่ยมแห่งโรม และ.การต่อสู้ ที่มีชีวิตเป็นเดิมพันจึงเริ่มขึ้น แกลดดิเอเตอร์ คือเอภิมหาภาพยนตร์ในเรื่องราวการต่อสู้สุดระทึกและ.ยิ่งใหญ่แบบโรมัน ที่ถูกปลุกให้กระหึ่มอีกครั้งในศตวรรษที่ 21 โดยฝีมือของสุดยอดผู้กำกับ ริดรี่ย์ สก็อตต์.(Blade Runner, Alien).
General
Unique ID                                : 191187249946494974130310229337465863044 (0x8FD55330F3BE852FB1ABFFB49616BB84)
Complete name                            : D:xxx66.Gladiator (2000) (Extended cut) แกลดดิเอเตอร์ นักรบผู้กล้าผ่าแผ่นดิน{Super Mini-HD 1080p HQ} Gladiator Extended Cut 2000 BluRay 1080p DTS x264-จิ้งจอกเก้าหาง.mkv
Format                                   : Matroska
Format version                           : Version 4 / Version 2
File size                                : 6.57 GiB
Duration                                 : 2h 50mn
Overall bit rate mode                    : Variable
Overall bit rate                         : 5 502 Kbps
Movie name                               : {Super Mini-HD 1080p HQ} Gladiator Extended Cut 2000 BluRay 1080p DTS x264-จิ้งจอกเก้าหาง
Encoded date                             : UTC 2014-06-14 04:56:51
Writing application                      : mkvmerge v6.2.0 ( Promised Land ) built on Apr 28 2013 12:22:01
Writing library                          : libebml v1.3.0 + libmatroska v1.4.0

Video
ID                                       : 1
Format                                   : AVC
Format/Info                              : Advanced Video Codec
Format profile                           : High@L4.1
Format settings, CABAC                   : Yes
Format settings, ReFrames                : 4 frames
Codec ID                                 : V_MPEG4/ISO/AVC
Duration                                 : 2h 50mn
Bit rate mode                            : Variable
Bit rate                                 : 3 900 Kbps
Maximum bit rate                         : 100.0 Mbps
Width                                    : 1 920 pixels
Height                                   : 816 pixels
Display aspect ratio                     : 2.35:1
Frame rate mode                          : Constant
Frame rate                               : 23.976 fps
Color space                              : YUV
Chroma subsampling                       : 4:2:0
Bit depth                                : 8 bits
Scan type                                : Progressive
Bits/(Pixel*Frame)                       : 0.104
Stream size                              : 4.62 GiB (70%)
Title                                    : {Super Mini-HD 1080p HQ} Gladiator Extended Cut 2000 BluRay 1080p DTS x264-จิ้งจอกเก้าหาง
Writing library                          : x264 core 130 r2273 b3065e6
Encoding settings                        : cabac=1 / ref=4 / deblock=1:0:0 / analyse=0x3:0x133 / me=umh / subme=11 / psy=1 / psy_rd=1.00:0.15 / mixed_ref=1 / me_range=24 / chroma_me=1 / trellis=2 / 8x8dct=1 / cqm=0 / deadzone=21,11 / fast_pskip=1 / chroma_qp_offset=-3 / threads=16 / lookahead_threads=1 / sliced_threads=0 / nr=0 / decimate=1 / interlaced=0 / bluray_compat=0 / constrained_intra=0 / bframes=3 / b_pyramid=2 / b_adapt=2 / b_bias=0 / direct=3 / weightb=1 / open_gop=0 / weightp=2 / keyint=250 / keyint_min=24 / scenecut=40 / intra_refresh=0 / rc_lookahead=60 / rc=2pass / mbtree=1 / bitrate=3900 / ratetol=1.0 / qcomp=0.60 / qpmin=0 / qpmax=69 / qpstep=4 / cplxblur=20.0 / qblur=0.5 / vbv_maxrate=99999 / vbv_bufsize=99999 / nal_hrd=vbr / ip_ratio=1.40 / aq=1:1.00
Language                                 : English
Default                                  : Yes
Forced                                   : No

Audio #1
ID                                       : 2
Format                                   : DTS
Format/Info                              : Digital Theater Systems
Mode                                     : 16
Format settings, Endianness              : Big
Codec ID                                 : A_DTS
Duration                                 : 2h 50mn
Bit rate mode                            : Constant
Bit rate                                 : 768 Kbps
Channel(s)                               : 6 channels
Channel positions                        : Front: L C R, Side: L R, LFE
Sampling rate                            : 48.0 KHz
Bit depth                                : 24 bits
Compression mode                         : Lossy
Stream size                              : 939 MiB (14%)
Title                                    : [THAI DTS FROM BLU-RAY MASTER]
Language                                 : Thai
Default                                  : Yes
Forced                                   : No

Audio #2
ID                                       : 3
Format                                   : DTS
Format/Info                              : Digital Theater Systems
Mode                                     : 16
Format settings, Endianness              : Big
Codec ID                                 : A_DTS
Duration                                 : 2h 50mn
Bit rate mode                            : Constant
Bit rate                                 : 755 Kbps
Channel(s)                               : 6 channels
Channel positions                        : Front: L C R, Side: L R, LFE
Sampling rate                            : 48.0 KHz
Bit depth                                : 24 bits
Compression mode                         : Lossy
Stream size                              : 923 MiB (14%)
Title                                    : [ENG DTS FROM BLU-RAY MASTER]
Language                                 : English
Default                                  : No
Forced                                   : No

Text #1
ID                                       : 4
Format                                   : VobSub
Codec ID                                 : S_VOBSUB
Codec ID/Info                            : The same subtitle format used on DVDs
Title                                    : [SUB THAI 480P FROM BLU-RAY]
Language                                 : Thai
Default                                  : Yes
Forced                                   : No

Text #2
ID                                       : 5
Format                                   : VobSub
Codec ID                                 : S_VOBSUB
Codec ID/Info                            : The same subtitle format used on DVDs
Title                                    : [SUB THAI 1080P FROM BLU-RAY]
Language                                 : Thai
Default                                  : No
Forced                                   : No

Text #3
ID                                       : 6
Format                                   : PGS
Codec ID                                 : S_HDMV/PGS
Codec ID/Info                            : The same subtitle format used on BDs/HD-DVDs
Title                                    : [SUB THAI PGS FROM BLU-RAY]
Language                                 : Thai
Default                                  : No
Forced                                   : No

Text #4
ID                                       : 7
Format                                   : PGS
Codec ID                                 : S_HDMV/PGS
Codec ID/Info                            : The same subtitle format used on BDs/HD-DVDs
Title                                    : [SUB THAI PGS FROM BLU-RAY] UNDER
Language                                 : Thai
Default                                  : No
Forced                                   : No

Text #5
ID                                       : 8
Format                                   : PGS
Codec ID                                 : S_HDMV/PGS
Codec ID/Info                            : The same subtitle format used on BDs/HD-DVDs
Title                                    : [SUB ENG PGS FROM BLU-RAY]
Language                                 : English
Default                                  : No
Forced                                   : No

เครดิต…คุณ จิ้งจอกเก้าหาง

_Super_Mini-HD_1080p_HQ__Gladiator_Extended_Cut_2000_BluRay_1080p_DTS_x264-__________________________________________.mkv – 7054582654

 

 

 

Facebook Comments

About the author

one4up .com

Add Comment

Click here to post a comment

Featured

Posts

HD Blu-Ray 1080p

[ฝรั่ง]-ใหม่ร้อนๆ! +[* เสียงไทยมาสเตอร์ *] Sleepless (2017) : คืนเดือด คนระห่ำ [*CtHts@SiamBIT*] • [พากย์ไทย มาสเตอร์ + เสียงอังกฤษ DTS] • [บรรยาย อังกฤษ] • [เสียงไทย MASTER] • [ เล็กพริกขี้หนู 1080p HQ ] Or *• ไฟล์เล็ก 1080p คุณภาพสูง

Advertisement