HD Blu-Ray 720p หนังเก่าน่าสะสม

[ญี่ปุ่น]-[Mini-HD] Death Note Trilogy 2006-2008 BluRay 720p AC3 x264-CtHts [เดธโน้ต ไตรภาค] [เสียงไทยและบรรยายไทยดีวีดีมาสเตอร์]-Encode.H.264.720p. [Modified]-[พากย์ไทย บรรยายไทย]

——————————————————————————————————-

Death Note – สมุดโน้ตกระชากวิญญาณ

ประเภท/Type :
Asian
Horror
Suspense Mystery
Thriller

สร้างโดย/Studio : [NONE]

รายละเอียดเรื่องย่อ/Synopsis
ยางามิ ไลท์ นักเรียนอัจฉริยะได้เจอสมุดโน้ตเล่มหนึ่งในคืนฝนตก สมุดเล่มนั้นวิธีใช้เป็นภาษาอังกฤษเขียนไว้ว่า เดธโน้ต คือ บันทึกของยมฑูต “ลุค” ได้ทำตกไว้ วิธีใช้เดธโน้ตคือเขียนชื่อและนามสกุลของคนที่ต้องการฆ่า โดยผู้เขียนต้องรู้จักหน้าตาของคนๆ นั้น จะส่งผลให้คนผู้นั้นตายภายใน 40 วินาที หลังจากไลท์เก็บเดธโน้ตได้ เขาก็ใช้มันฆ่าอาชญากรทีละคนจากข้อมูลที่เขาเก็บไว้ ทุกคนเรียกเขาว่า “คิระ” จากความซับซ้อนของคดีคิระ องค์กรตำรวจลับของโลกได้ส่ง แอล มาคลี่คลายคดีเพราะเขาได้ชื่อว่าเป็นนักสืบอัจฉริยะ ที่ไม่เคยคลี่คลายคดีไม่ได้ ความมันส์แบบลุ้นระทึก การไล่ล่าแบบสืบสวนสุดเข้มข้นเริ่มขึ้นแล้ว

นักแสดง/Actors :
– Tatsuya Fujiwara
– Kenichi Matsuyama (เคนอิจิ มัตซึยามะ)
– Asaka Seto (อาซากะ เซโตะ)
– Yu Kashii

ผู้กำกับ/Directors :
– Shusuke Kaneko

General
Unique ID : 174754688369097267429908227742662492607 (0x8378875A890F56AAAD8D3875050181BF)
Complete name : L:nfsdownload[Mini-HD] Death Note Trilogy 2006-2008 BluRay 720p AC3 x264-CtHtsDeath Note 2006 BluRay 720p AC3 x264-CtHts.mkv
Format : Matroska
Format version : Version 2
File size : 2.85 GiB
Duration : 2h 6mn
Overall bit rate : 3 218 Kbps
Encoded date : UTC 2013-05-29 16:17:46
Writing application : mkvmerge v3.4.0 ( Rapunzel ) built on May 15 2010 09:38:20
Writing library : libebml v0.8.0 + libmatroska v0.9.0

Video
ID : 1
Format : AVC
Format/Info : Advanced Video Codec
Format profile : High@L3.1
Format settings, CABAC : Yes
Format settings, ReFrames : 3 frames
Codec ID : V_MPEG4/ISO/AVC
Duration : 2h 6mn
Bit rate : 2 500 Kbps
Width : 1 280 pixels
Height : 720 pixels
Display aspect ratio : 16:9
Frame rate mode : Constant
Frame rate : 23.976 fps
Color space : YUV
Chroma subsampling : 4:2:0
Bit depth : 8 bits
Scan type : Progressive
Bits/(Pixel*Frame) : 0.113
Stream size : 2.11 GiB (74%)
Title : Death Note 2006 BluRay 720p AC3 x264-CtHts
Writing library : x264 core 94
Encoding settings : cabac=1 / ref=3 / deblock=1:0:0 / analyse=0x3:0x133 / me=tesa / subme=10 / psy=1 / psy_rd=1.00:0.00 / mixed_ref=1 / me_range=16 / chroma_me=1 / trellis=2 / 8x8dct=1 / cqm=0 / deadzone=21,11 / fast_pskip=1 / chroma_qp_offset=-2 / threads=12 / sliced_threads=0 / nr=0 / decimate=1 / interlaced=0 / constrained_intra=0 / bframes=3 / b_pyramid=1 / b_adapt=2 / b_bias=0 / direct=3 / weightb=1 / weightp=2 / keyint=230 / keyint_min=23 / scenecut=40 / intra_refresh=0 / rc_lookahead=40 / rc=abr / mbtree=1 / bitrate=2500 / ratetol=0.2 / qcomp=0.60 / qpmin=10 / qpmax=51 / qpstep=4 / ip_ratio=1.40 / aq=1:1.00
Language : English
Default : Yes
Forced : No

Audio #1
ID : 2
Format : AC-3
Format/Info : Audio Coding 3
Mode extension : CM (complete main)
Format settings, Endianness : Big
Codec ID : A_AC3
Duration : 2h 6mn
Bit rate mode : Constant
Bit rate : 384 Kbps
Channel(s) : 6 channels
Channel positions : Front: L C R, Side: L R, LFE
Sampling rate : 48.0 KHz
Bit depth : 16 bits
Compression mode : Lossy
Delay relative to video : 1s 0ms
Stream size : 348 MiB (12%)
Title : AC3 384 Kbps
Language : Thai
Default : Yes
Forced : No

Audio #2
ID : 3
Format : AC-3
Format/Info : Audio Coding 3
Mode extension : CM (complete main)
Format settings, Endianness : Big
Codec ID : A_AC3
Duration : 2h 6mn
Bit rate mode : Constant
Bit rate : 384 Kbps
Channel(s) : 6 channels
Channel positions : Front: L C R, Side: L R, LFE
Sampling rate : 48.0 KHz
Bit depth : 16 bits
Compression mode : Lossy
Delay relative to video : 1s 0ms
Stream size : 348 MiB (12%)
Title : AC3 384 Kbps
Language : Japanese
Default : No
Forced : No

Text
ID : 4
Format : VobSub
Muxing mode : zlib
Codec ID : S_VOBSUB
Codec ID/Info : The same subtitle format used on DVDs
Title : Thai
Language : Thai
Default : Yes
Forced : No

SS: http://postto.me/show.php?id=e10655bf9d2519194e413be99ad158a8

——————————————————————————————————-

Death Note 2: The Last Name – อวสานสมุดมรณะ

ประเภท/Type :
Asian
Horror
Suspense Mystery
Thriller

สร้างโดย/Studio : [NONE]

รายละเอียดเรื่องย่อ/Synopsis
จากภาพยนตร์ที่สร้างจากสถิติรายได้ 2.8 ล้านเยนในญี่ปุ่น!!! สู่ภาพยนตร์ญี่ปุ่นที่ทำรายได้สูงสุดในไทย เมื่อ ไลท์ เจ้าของ Death Note ได้เข้าร่วมทีมสืบสวนคดีคิระ ร่วมกับ แอล เพื่อค้นหาฆาตกร คิระ พวกเขาได้รับสาส์นท้าทายจากคิระ ผ่านทางสถานีโทรทัศน์ซากุระ ซึ่งแอล สังเกตเห็นว่าเหตุการณ์ฆาตกรรมที่เกิดขึ้น เป็นรูปแบบที่แตกต่างจากเดิมอย่างสิ้นเชิง ดังนั้น คิระคนนี้ ไม่ใช่คิระคนเดียวกับที่เขากำลังตามล่าอย่างแน่นอน !!!!! ซ้ำยังมีเหตุการณ์ฆาตกรรมลึกลับกลับผุดขึ้นอย่างรวดเร็วทำให้เกิดความสงสัยว่าอาจมีคิระถึงสามคน และการมาของคิระคนที่สาม ก็นำไปสู่การต่อสู้อันเป็นบทสรุปของผู้ครอบครองสมุด Death Note

นักแสดง/Actors :
– Tatsuya Fujiwara
– Kenichi Matsuyama (เคนอิจิ มัตซึยามะ)
– Shigeki Hosokawa
– Erika Toda
– Shunji Fujimura

ผู้กำกับ/Directors :
– Shusuke Kaneko

General
Unique ID : 200546059777259472993104501494484776517 (0x96DFC4241201987F906A2953C6273645)
Complete name : L:nfsdownload[Mini-HD] Death Note Trilogy 2006-2008 BluRay 720p AC3 x264-CtHtsDeath Note The Last Name 2006 BluRay 720p AC3 x264-CtHts.mkv
Format : Matroska
Format version : Version 2
File size : 3.18 GiB
Duration : 2h 20mn
Overall bit rate : 3 239 Kbps
Encoded date : UTC 2013-05-29 16:22:49
Writing application : mkvmerge v3.4.0 ( Rapunzel ) built on May 15 2010 09:38:20
Writing library : libebml v0.8.0 + libmatroska v0.9.0

Video
ID : 1
Format : AVC
Format/Info : Advanced Video Codec
Format profile : High@L3.1
Format settings, CABAC : Yes
Format settings, ReFrames : 3 frames
Codec ID : V_MPEG4/ISO/AVC
Duration : 2h 20mn
Bit rate : 2 500 Kbps
Width : 1 280 pixels
Height : 720 pixels
Display aspect ratio : 16:9
Frame rate mode : Constant
Frame rate : 23.976 fps
Color space : YUV
Chroma subsampling : 4:2:0
Bit depth : 8 bits
Scan type : Progressive
Bits/(Pixel*Frame) : 0.113
Stream size : 2.36 GiB (74%)
Title : Death Note The Last Name 2006 BluRay 720p AC3 x264-CtHts
Writing library : x264 core 94
Encoding settings : cabac=1 / ref=3 / deblock=1:0:0 / analyse=0x3:0x133 / me=tesa / subme=10 / psy=1 / psy_rd=1.00:0.00 / mixed_ref=1 / me_range=16 / chroma_me=1 / trellis=2 / 8x8dct=1 / cqm=0 / deadzone=21,11 / fast_pskip=1 / chroma_qp_offset=-2 / threads=12 / sliced_threads=0 / nr=0 / decimate=1 / interlaced=0 / constrained_intra=0 / bframes=3 / b_pyramid=1 / b_adapt=2 / b_bias=0 / direct=3 / weightb=1 / weightp=2 / keyint=230 / keyint_min=23 / scenecut=40 / intra_refresh=0 / rc_lookahead=40 / rc=abr / mbtree=1 / bitrate=2500 / ratetol=0.2 / qcomp=0.60 / qpmin=10 / qpmax=51 / qpstep=4 / ip_ratio=1.40 / aq=1:1.00
Language : English
Default : Yes
Forced : No

Audio #1
ID : 2
Format : AC-3
Format/Info : Audio Coding 3
Mode extension : CM (complete main)
Format settings, Endianness : Big
Codec ID : A_AC3
Duration : 2h 20mn
Bit rate mode : Constant
Bit rate : 384 Kbps
Channel(s) : 6 channels
Channel positions : Front: L C R, Side: L R, LFE
Sampling rate : 48.0 KHz
Bit depth : 16 bits
Compression mode : Lossy
Stream size : 386 MiB (12%)
Title : AC3 384 Kbps
Language : Thai
Default : Yes
Forced : No

Audio #2
ID : 3
Format : AC-3
Format/Info : Audio Coding 3
Mode extension : CM (complete main)
Format settings, Endianness : Big
Codec ID : A_AC3
Duration : 2h 20mn
Bit rate mode : Constant
Bit rate : 384 Kbps
Channel(s) : 6 channels
Channel positions : Front: L C R, Side: L R, LFE
Sampling rate : 48.0 KHz
Bit depth : 16 bits
Compression mode : Lossy
Stream size : 386 MiB (12%)
Title : AC3 384 Kbps
Language : Japanese
Default : No
Forced : No

Text
ID : 4
Format : VobSub
Muxing mode : zlib
Codec ID : S_VOBSUB
Codec ID/Info : The same subtitle format used on DVDs
Title : Thai
Language : Thai
Default : Yes
Forced : No

SS: http://postto.me/show.php?id=676528713b8957ff11fdd6e08b8fa192

——————————————————————————————————-

L: Change The World – สมุดโน้ตสิ้นโลก

ประเภท/Type :
Asian
Horror
Suspense Mystery
Thriller

สร้างโดย/Studio : [NONE]

รายละเอียดเรื่องย่อ/Synopsis
หลังจากนักสืบยอดอัจฉริยะ “แอล” (เคนอิชิ มัตสึยาม่า) ปิดคดีคิระสำเร็จ เสร็จสิ้น…ด้วยการตัดสินใจครั้งยิ่งใหญ่ที่สุดในชีวิต! แอลยังคงมีคดีร้ายแรงหลงเหลือให้ต้องสะสางภายในเวลาที่จำกัดเพียง 23 วัน! เป็นครั้งแรกที่ แอลต้องทำงานลำพัง โดยปราศจาก “วาตาริ” คู่หูผู้รู้ใจ แอลต้องตกที่นั่งลำบากเมื่อเด็กผู้ถือครองกุญแจสำคัญในการไขคดีต่างๆ ผ่านจอมอนิเตอร์ แอลต้องออกมาจัดการคลี่คลายคดีนี้ด้วยตัวเองเป็นครั้งแรกและครั้งสุดท้าย! ผู้ที่ครอบครองอาวุธร้ายจากฝีมือมนุษย์ มัจจุราช (เดธ ก๊อด) ได้กล่าวประโยคเดียวกับคิระว่า “ฉันจะเปลี่ยนโลกใบนี้” จะเกิดอะไรขึ้นกับแอล? สิ่งใดในโลกจะเปลี่ยนไป? 23 วันสุดท้ายที่สับสนวุ่นวายแม้แต่แอลเองก็ไม่สามารถกำหนดได้ อะไรกำลังรอเขาอยู่? การนับถอยหลังที่แสนจะตื่นเต้นเร้าใจ กำลังจะเริ่มขึ้น ณ บัดนี้!

นักแสดง/Actors :
– Kenichi Matsuyama (เคนอิจิ มัตซึยามะ)
– Shunji Fujimura
– Youki Kudoh
– Erika Toda
– Renji Ishibashi (เร็นจิ อิชิบาชิ)

ผู้กำกับ/Directors :
– Hideo Nakata

General
Unique ID : 234374926480020378069846075803146113244 (0xB052F80AA04E152EB0C1215FBDC7D0DC)
Complete name : L:nfsdownload[Mini-HD] Death Note Trilogy 2006-2008 BluRay 720p AC3 x264-CtHtsL Change the World 2008 BluRay 720p AC3 x264-CtHts.mkv
Format : Matroska
Format version : Version 2
File size : 3.04 GiB
Duration : 2h 8mn
Overall bit rate : 3 379 Kbps
Encoded date : UTC 2013-05-29 16:28:15
Writing application : mkvmerge v3.4.0 ( Rapunzel ) built on May 15 2010 09:38:20
Writing library : libebml v0.8.0 + libmatroska v0.9.0

Video
ID : 1
Format : AVC
Format/Info : Advanced Video Codec
Format profile : High@L3.1
Format settings, CABAC : Yes
Format settings, ReFrames : 3 frames
Codec ID : V_MPEG4/ISO/AVC
Duration : 2h 8mn
Bit rate : 2 500 Kbps
Width : 1 280 pixels
Height : 692 pixels
Display aspect ratio : 1.85:1
Frame rate mode : Constant
Frame rate : 23.976 fps
Color space : YUV
Chroma subsampling : 4:2:0
Bit depth : 8 bits
Scan type : Progressive
Bits/(Pixel*Frame) : 0.118
Stream size : 2.18 GiB (71%)
Title : L Change the World 2008 BluRay 720p AC3 x264-CtHts
Writing library : x264 core 94
Encoding settings : cabac=1 / ref=3 / deblock=1:0:0 / analyse=0x3:0x133 / me=tesa / subme=10 / psy=1 / psy_rd=1.00:0.00 / mixed_ref=1 / me_range=16 / chroma_me=1 / trellis=2 / 8x8dct=1 / cqm=0 / deadzone=21,11 / fast_pskip=1 / chroma_qp_offset=-2 / threads=12 / sliced_threads=0 / nr=0 / decimate=1 / interlaced=0 / constrained_intra=0 / bframes=3 / b_pyramid=1 / b_adapt=2 / b_bias=0 / direct=3 / weightb=1 / weightp=2 / keyint=230 / keyint_min=23 / scenecut=40 / intra_refresh=0 / rc_lookahead=40 / rc=abr / mbtree=1 / bitrate=2500 / ratetol=0.2 / qcomp=0.60 / qpmin=10 / qpmax=51 / qpstep=4 / ip_ratio=1.40 / aq=1:1.00
Language : English
Default : Yes
Forced : No

Audio #1
ID : 2
Format : AC-3
Format/Info : Audio Coding 3
Mode extension : CM (complete main)
Format settings, Endianness : Big
Codec ID : A_AC3
Duration : 2h 8mn
Bit rate mode : Constant
Bit rate : 448 Kbps
Channel(s) : 6 channels
Channel positions : Front: L C R, Side: L R, LFE
Sampling rate : 48.0 KHz
Bit depth : 16 bits
Compression mode : Lossy
Stream size : 413 MiB (13%)
Title : AC3 448 Kbps
Language : Thai
Default : Yes
Forced : No

Audio #2
ID : 3
Format : AC-3
Format/Info : Audio Coding 3
Mode extension : CM (complete main)
Format settings, Endianness : Big
Codec ID : A_AC3
Duration : 2h 8mn
Bit rate mode : Constant
Bit rate : 448 Kbps
Channel(s) : 6 channels
Channel positions : Front: L C R, Side: L R, LFE
Sampling rate : 48.0 KHz
Bit depth : 16 bits
Compression mode : Lossy
Stream size : 413 MiB (13%)
Title : AC3 448 Kbps
Language : Japanese
Default : No
Forced : No

Text
ID : 4
Format : VobSub
Muxing mode : zlib
Codec ID : S_VOBSUB
Codec ID/Info : The same subtitle format used on DVDs
Title : Thai
Language : Thai
Default : Yes
Forced : No

SS: http://postto.me/show.php?id=d280cc058304c71bc7df169c660e8596

——————————————————————————————————-


Death Note (2006) IMDb 8.0 http://www.imdb.com/title/tt0758742/

Death Note: The Last Name (2006) IMDb 7.4 http://www.imdb.com/title/tt0810827/

Death Note: L Change the World (2008) IMDb 6.3 http://www.imdb.com/title/tt0912597/

Death_Note_1_2006_BluRay_720p_AC3_x264-CtHts.mkv – 3056647173
Death_Note_2_The_Last_Name_2006_BluRay_720p_AC3_x264-CtHts.mkv – 3417257366
L_Change_the_World_2008_BluRay_720p_AC3_x264-CtHts.mkv – 3267625431

 

Facebook Comments

About the author

one4up .com

Add Comment

Click here to post a comment

Featured

Advertisement