DVD Master HD Blu-Ray 1080p หนังเก่าน่าสะสม

[ฝรั่ง]-Cobra (1986) คอบร้า -Blu-ray.DTS.1080p.-[พากย์ไทย 5.1 + อังกฤษ DTS] [บรรยายไทย PGS + อังกฤษ ] เสียง,ซับ ความละเอียดสูง DVD Master

ในเรื่องพี่สไลรับบทเป็นนายตำรวจ มาเรียน คอแบรตตี้ หรือ คอบร้า มือปราบกระดูกเหล็กที่เหล่าร้ายต่างขยาดกันเป็นแถบ เพราะวิธีการจับผู้ร้ายของเขานั้นค่อนข้างหนักและโหดครับ (คือผู้ร้ายส่วนมากถ้าโดนพี่แกหมายหัว ก็มีแต่ตายกับตายเท่านั้น) และเขาก็ต้องมารับภารกิจช่วยเหลือพยานสาวสวยที่ชื่อ อิงกริด (Brigitte Nielsen) ที่ดันไปพบเห็นการลงมือฆ่าคนอย่างโหดเหี้ยมของกลุ่มอาชญากรอำมหิตที่เรียกตัวเองว่า ไนท์สแลชเชอร์ (Brian Thompson) เธอจึงตกเป็นเป้าสังหารในทันที
งานนี้ก็คงมีตายกันเกลื่อนล่ะครับ เพราะเหล่าวายร้ายโคตรโหดอำมหิตมาเจอกับโคตรตำรวจจอมกระหน่ำกระสุน
General
Unique ID : 252648728607532699136728873389571326195 (0xBE12600C09528B7984B18AA6E7A240F3)
Complete name : Cobra.1986.1080p.BluRay.x264.DTS-วิถีคนพาล.mkv
Format : Matroska
Format version : Version 4 / Version 2
File size : 3.98 GiB
Duration : 1 h 27 min
Overall bit rate mode : Variable
Overall bit rate : 6 545 kb/s
Movie name : Cobra1986 Mod By วิถีคนพาล
Encoded date : UTC 2017-03-21 20:07:51
Writing application : mkvmerge v9.8.0 ( Kuglblids ) 64bit
Writing library : libebml v1.3.4 + libmatroska v1.4.5

Video
ID : 1
Format : AVC
Format/Info : Advanced Video Codec
Format profile : High@L4.1
Format settings, CABAC : Yes
Format settings, ReFrames : 3 frames
Codec ID : V_MPEG4/ISO/AVC
Duration : 1 h 27 min
Bit rate mode : Variable
Bit rate : 4 596 kb/s
Maximum bit rate : 62.5 Mb/s
Width : 1 920 pixels
Height : 1 080 pixels
Display aspect ratio : 16:9
Frame rate mode : Constant
Frame rate : 23.976 (24000/1001) FPS
Color space : YUV
Chroma subsampling : 4:2:0
Bit depth : 8 bits
Scan type : Progressive
Bits/(Pixel*Frame) : 0.092
Stream size : 2.79 GiB (70%)
Writing library : x264 core 120 r2120 0c7dab9
Encoding settings : cabac=1 / ref=3 / deblock=1:-1:-1 / analyse=0x3:0x113 / me=hex / subme=7 / psy=1 / psy_rd=1.00:0.15 / mixed_ref=1 / me_range=16 / chroma_me=1 / trellis=1 / 8x8dct=1 / cqm=0 / deadzone=21,11 / fast_pskip=1 / chroma_qp_offset=-3 / threads=3 / sliced_threads=0 / nr=0 / decimate=1 / interlaced=0 / bluray_compat=0 / constrained_intra=0 / bframes=3 / b_pyramid=0 / b_adapt=1 / b_bias=0 / direct=1 / weightb=1 / open_gop=0 / weightp=2 / keyint=240 / keyint_min=24 / scenecut=40 / intra_refresh=0 / rc_lookahead=40 / rc=2pass / mbtree=1 / bitrate=4596 / ratetol=1.0 / qcomp=0.60 / qpmin=0 / qpmax=69 / qpstep=4 / cplxblur=20.0 / qblur=0.5 / vbv_maxrate=62500 / vbv_bufsize=62500 / nal_hrd=vbr / ip_ratio=1.40 / aq=1:1.00
Language : English
Default : Yes
Forced : No

Audio #1
ID : 2
Format : AC-3
Format/Info : Audio Coding 3
Mode extension : CM (complete main)
Format settings, Endianness : Big
Codec ID : A_AC3
Duration : 1 h 27 min
Bit rate mode : Constant
Bit rate : 384 kb/s
Channel(s) : 6 channels
Channel positions : Front: L C R, Side: L R, LFE
Sampling rate : 48.0 kHz
Frame rate : 31.250 FPS (1536 spf)
Bit depth : 16 bits
Compression mode : Lossy
Delay relative to video : 4 s 500 ms
Stream size : 239 MiB (6%)
Language : Thai
Default : Yes
Forced : Yes

Audio #2
ID : 3
Format : DTS
Format/Info : Digital Theater Systems
Mode : 16
Format settings, Endianness : Big
Codec ID : A_DTS
Duration : 1 h 27 min
Bit rate mode : Constant
Bit rate : 1 509 kb/s
Channel(s) : 6 channels
Channel positions : Front: L C R, Side: L R, LFE
Sampling rate : 48.0 kHz
Frame rate : 93.750 FPS (512 spf)
Bit depth : 24 bits
Compression mode : Lossy
Stream size : 940 MiB (23%)
Language : English
Default : No
Forced : No

Text #1
ID : 4
Format : VobSub
Muxing mode : zlib
Codec ID : S_VOBSUB
Codec ID/Info : Picture based subtitle format used on DVDs
Duration : 1 h 26 min
Bit rate : 1 424 b/s
Count of elements : 711
Stream size : 901 KiB (0%)
Title : THA 420p BluRay Master
Language : Thai
Default : No
Forced : No

Text #2
ID : 5
Format : VobSub
Muxing mode : zlib
Codec ID : S_VOBSUB
Codec ID/Info : Picture based subtitle format used on DVDs
Duration : 1 h 22 min
Bit rate : 2 170 b/s
Count of elements : 707
Stream size : 1.28 MiB (0%)
Title : THA 720p As
Language : Thai
Default : No
Forced : No

Text #3
ID : 6
Format : VobSub
Muxing mode : zlib
Codec ID : S_VOBSUB
Codec ID/Info : Picture based subtitle format used on DVDs
Duration : 1 h 22 min
Bit rate : 3 513 b/s
Count of elements : 707
Stream size : 2.08 MiB (0%)
Title : THA 1080p AS
Language : Thai
Default : No
Forced : No

Text #4
ID : 7
Format : VobSub
Muxing mode : zlib
Codec ID : S_VOBSUB
Codec ID/Info : Picture based subtitle format used on DVDs
Duration : 1 h 22 min
Bit rate : 3 513 b/s
Count of elements : 707
Stream size : 2.08 MiB (0%)
Title : THA 1080p AS Yellow
Language : Thai
Default : No
Forced : No

Text #5
ID : 8
Format : VobSub
Muxing mode : zlib
Codec ID : S_VOBSUB
Codec ID/Info : Picture based subtitle format used on DVDs
Duration : 1 h 22 min
Bit rate : 3 327 b/s
Count of elements : 707
Stream size : 1.97 MiB (0%)
Title : THA 1080p FE
Language : Thai
Default : Yes
Forced : Yes

Text #6
ID : 9
Format : VobSub
Muxing mode : zlib
Codec ID : S_VOBSUB
Codec ID/Info : Picture based subtitle format used on DVDs
Duration : 1 h 22 min
Bit rate : 3 321 b/s
Count of elements : 707
Stream size : 1.96 MiB (0%)
Title : THA 1080p FE Yellow
Language : Thai
Default : No
Forced : No

Text #7
ID : 10
Format : VobSub
Muxing mode : zlib
Codec ID : S_VOBSUB
Codec ID/Info : Picture based subtitle format used on DVDs
Duration : 1 h 22 min
Bit rate : 3 021 b/s
Count of elements : 707
Stream size : 1.78 MiB (0%)
Title : THA 1080p TA
Language : Thai
Default : No
Forced : No

Text #8
ID : 11
Format : PGS
Muxing mode : zlib
Codec ID : S_HDMV/PGS
Codec ID/Info : Picture based subtitle format used on BDs/HD-DVDs
Duration : 1 h 22 min
Bit rate : 9 141 b/s
Count of elements : 1414
Stream size : 5.40 MiB (0%)
Title : THA PGS AS
Language : Thai
Default : No
Forced : No

Text #9
ID : 12
Format : PGS
Muxing mode : zlib
Codec ID : S_HDMV/PGS
Codec ID/Info : Picture based subtitle format used on BDs/HD-DVDs
Duration : 1 h 22 min
Bit rate : 11.4 kb/s
Count of elements : 1414
Stream size : 6.74 MiB (0%)
Title : THA PGS FE
Language : Thai
Default : No
Forced : No

Text #10
ID : 13
Format : PGS
Muxing mode : zlib
Codec ID : S_HDMV/PGS
Codec ID/Info : Picture based subtitle format used on BDs/HD-DVDs
Duration : 1 h 22 min
Bit rate : 10.5 kb/s
Count of elements : 1414
Stream size : 6.21 MiB (0%)
Title : THA PGS TA
Language : Thai
Default : No
Forced : No

Text #11
ID : 14
Format : PGS
Muxing mode : zlib
Codec ID : S_HDMV/PGS
Codec ID/Info : Picture based subtitle format used on BDs/HD-DVDs
Duration : 1 h 26 min
Bit rate : 8 412 b/s
Count of elements : 1344
Stream size : 5.20 MiB (0%)
Title : SDH
Language : English
Default : No
Forced : No

Menu
00:00:00.000 : en:Heavy Metal (Credits)
00:02:51.045 : en:Supermarket Psycho
00:07:11.889 : en:The Way Of The New World
00:09:59.432 : en:Disease Meets Cure
00:13:11.624 : en:Room To Park (Suave)
00:16:44.545 : en:New Victims – And A Witness
00:21:39.923 : en:”Do What You Do Best”
00:22:59.002 : en:Working (Angel Of The City)
00:25:50.674 : en:Ingrid Attacked
00:29:10.915 : en:”She Knows Your Face”
00:33:24.752 : en:Hospital Stalker
00:37:48.182 : en:Blood Flows
00:42:39.723 : en:Somebody On The Inside
00:43:51.086 : en:Hot Wheels
00:50:53.675 : en:He s The Psycho
00:52:36.528 : en:Tell It To The Judge (Feel The Heat)
00:54:33.270 : en:A Tougher Name
00:57:04.003 : en:Crazy To Get Involved
00:59:41.995 : en:A Good Idea (Loving On Borrowed Time)
01:04:14.684 : en:Motel Mayhem
01:08:27.186 : en:Hitting The Road…Hard!
01:10:39.026 : en:The Factory
01:12:37.853 : en:Fire With Fire
01:14:44.897 : en:Where The Law Stops
01:17:32.689 : en:Hooked
01:20:08.470 : en:No Hard Feelings
01:22:39.621 : en:End Credits (Voice Of America s Sons)








http://cornfile.com/ozzi7mke316b

Facebook Comments

About the author

one4up .com

Featured

Posts

หนังซูม

[ฝรั่ง]-[ใหม่!ก่อนใคร] • [Zoom V.1] • [* อภิมหาหนังไซไฟถล่มโลกอีกเรื่องของ ดีน เดฟลิน *] • Geostorm (2017) : จีโอสตอร์ม เมฆาถล่มโลก • [* HDCAM.X264.ThaiRong2.0 CpT@CtHts *] • [*CtHts@SiamBIT*] • [พากย์ไทยโรง 2.0 + เสียงอังกฤษ 2.0] • [หนังซูม] • [พากย์ไทยโรง]

Mini HD Blu-Ray 1080p

[ฝรั่ง]-ใหม่ร้อนๆ! [* เล็กพริกขี้หนู 1080p Super HQ *] 2:22 (2017) / 2:22 เวลาเฉียดตาย [*CtHts@SiamBIT*] • [พากย์ไทย 5.1 + เสียงอังกฤษ DTS] • [บรรยายไทย + อังกฤษ] • [เสียงไทย + ซับไทย From MASTER +ซับ PGS คมชัด] *• ไฟล์เล็ก 1080p คุณภาพสูง! •*

Advertisement